2016-09-16 18:28 GMT+02:00 S Andreason <sandrea...@gmail.com>:

>  Duration: 00:01:55.42, start: 0.000000, bitrate: 24865 kb/s
>    Stream #0:0(eng): Video: h264 (Constrained Baseline) (avc1 / 0x31637661),
> yuvj420p(pc, bt709), 1280x720, 23320 kb/s, 29.97 fps, 29.97 tbr, 30k tbn,
> 60k tbc (default)

>    Stream #0:0(eng): Video: h264 (High) (avc1 / 0x31637661), yuv420p,
> 1920x1080, 17599 kb/s, 30 fps, 30 tbr, 30k tbn, 60k tbc (default)

The input streams have different frame rates, use the -r option when
encoding the input files (or use setpts if you prefer not to drop / duplicate
frames).

Carl Eugen
_______________________________________________
ffmpeg-user mailing list
ffmpeg-user@ffmpeg.org
http://ffmpeg.org/mailman/listinfo/ffmpeg-user

To unsubscribe, visit link above, or email
ffmpeg-user-requ...@ffmpeg.org with subject "unsubscribe".

Reply via email to