Hi,

I use following command to test ffmpeg-3.4.1:


ffmpeg -debug_ts -ss 10 -t 1 -i hanma.ts -f null /dev/null






ffmpeg version 3.4.1 Copyright (c) 2000-2017 the FFmpeg developers
  built with gcc 4.8.5 (GCC) 20150623 (Red Hat 4.8.5-4)
  configuration: --enable-version3 --enable-asm --enable-avfilter 
--disable-static --enable-shared --enable-gpl --enable-nonfree 
--prefix=/usr/local/ --extra-cflags=-I/usr/local/include 
--extra-ldflags=-L/usr/local/lib --enable-stripping
  libavutil      55. 78.100 / 55. 78.100
  libavcodec     57.107.100 / 57.107.100
  libavformat    57. 83.100 / 57. 83.100
  libavdevice    57. 10.100 / 57. 10.100
  libavfilter     6.107.100 /  6.107.100
  libswscale      4.  8.100 /  4.  8.100
  libswresample   2.  9.100 /  2.  9.100
  libpostproc    54.  7.100 / 54.  7.100
Input #0, mpegts, from './hanma.ts':
  Duration: 00:02:39.78, start: 1.400000, bitrate: 10913 kb/s
  Program 1 
    Metadata:
      service_name    : Service01
      service_provider: FFmpeg
    Stream #0:0[0x100]: Video: h264 (Constrained Baseline) ([27][0][0][0] / 
0x001B), yuv420p(progressive), 1280x720 [SAR 3:4 DAR 4:3], 24 fps, 24 tbr, 90k 
tbn, 48 tbc
    Stream #0:1[0x101]: Audio: ac3 ([129][0][0][0] / 0x0081), 48000 Hz, stereo, 
fltp, 192 kb/s
Stream mapping:
  Stream #0:0 -> #0:0 (h264 (native) -> wrapped_avframe (native))
  Stream #0:1 -> #0:1 (ac3 (native) -> pcm_s16le (native))
Press [q] to stop, [?] for help
demuxer -> ist_index:1 type:audio next_dts:NOPTS next_dts_time:NOPTS 
next_pts:NOPTS next_pts_time:NOPTS pkt_pts:1024560 pkt_pts_time:11.384 
pkt_dts:1024560 pkt_dts_time:11.384 off:-11400000 off_time:-11.4
demuxer+ffmpeg -> ist_index:1 type:audio pkt_pts:-1440 pkt_pts_time:-0.016 
pkt_dts:-1440 pkt_dts_time:-0.016 off:-11400000 off_time:-11.4
encoder <- type:audio frame_pts:0 frame_pts_time:0 time_base:1/48000
encoder -> type:audio pkt_pts:0 pkt_pts_time:0 pkt_dts:0 pkt_dts_time:0
demuxer -> ist_index:1 type:audio next_dts:16000 next_dts_time:0.016 
next_pts:16000 next_pts_time:0.016 pkt_pts:1027440 pkt_pts_time:11.416 
pkt_dts:1027440 pkt_dts_time:11.416 off:-11400000 off_time:-11.4
demuxer+ffmpeg -> ist_index:1 type:audio pkt_pts:1440 pkt_pts_time:0.016 
pkt_dts:1440 pkt_dts_time:0.016 off:-11400000 off_time:-11.4
encoder <- type:audio frame_pts:768 frame_pts_time:0.016 time_base:1/48000
encoder -> type:audio pkt_pts:768 pkt_pts_time:0.016 pkt_dts:768 
pkt_dts_time:0.016
demuxer -> ist_index:1 type:audio next_dts:48000 next_dts_time:0.048 
next_pts:48000 next_pts_time:0.048 pkt_pts:1030320 pkt_pts_time:11.448 
pkt_dts:1030320 pkt_dts_time:11.448 off:-11400000 off_time:-11.4
demuxer+ffmpeg -> ist_index:1 type:audio pkt_pts:4320 pkt_pts_time:0.048 
pkt_dts:4320 pkt_dts_time:0.048 off:-11400000 off_time:-11.4
encoder <- type:audio frame_pts:2304 frame_pts_time:0.048 time_base:1/48000
encoder -> type:audio pkt_pts:2304 pkt_pts_time:0.048 pkt_dts:2304 
pkt_dts_time:0.048
demuxer -> ist_index:0 type:video next_dts:NOPTS next_dts_time:NOPTS 
next_pts:NOPTS next_pts_time:NOPTS pkt_pts:1026000 pkt_pts_time:11.4 
pkt_dts:1026000 pkt_dts_time:11.4 off:-11400000 off_time:-11.4
demuxer+ffmpeg -> ist_index:0 type:video pkt_pts:0 pkt_pts_time:0 pkt_dts:0 
pkt_dts_time:0 off:-11400000 off_time:-11.4
demuxer -> ist_index:0 type:video next_dts:41667 next_dts_time:0.041667 
next_pts:0 next_pts_time:0 pkt_pts:1029750 pkt_pts_time:11.4417 pkt_dts:1029750 
pkt_dts_time:11.4417 off:-11400000 off_time:-11.4
demuxer+ffmpeg -> ist_index:0 type:video pkt_pts:3750 pkt_pts_time:0.0416667 
pkt_dts:3750 pkt_dts_time:0.0416667 off:-11400000 off_time:-11.4
[h264 @ 0x17da880] Missing reference picture, default is 0
[h264 @ 0x17da880] decode_slice_header error
demuxer -> ist_index:0 type:video next_dts:83334 next_dts_time:0.083334 
next_pts:0 next_pts_time:0 pkt_pts:1033500 pkt_pts_time:11.4833 pkt_dts:1033500 
pkt_dts_time:11.4833 off:-11400000 off_time:-11.4
demuxer+ffmpeg -> ist_index:0 type:video pkt_pts:7500 pkt_pts_time:0.0833333 
pkt_dts:7500 pkt_dts_time:0.0833333 off:-11400000 off_time:-11.4
demuxer -> ist_index:1 type:audio next_dts:80000 next_dts_time:0.08 
next_pts:80000 next_pts_time:0.08 pkt_pts:1033200 pkt_pts_time:11.48 
pkt_dts:1033200 pkt_dts_time:11.48 off:-11400000 off_time:-11.4
demuxer+ffmpeg -> ist_index:1 type:audio pkt_pts:7200 pkt_pts_time:0.08 
pkt_dts:7200 pkt_dts_time:0.08 off:-11400000 off_time:-11.4
encoder <- type:audio frame_pts:3840 frame_pts_time:0.08 time_base:1/48000
encoder -> type:audio pkt_pts:3840 pkt_pts_time:0.08 pkt_dts:3840 
pkt_dts_time:0.08
demuxer -> ist_index:1 type:audio next_dts:112000 next_dts_time:0.112 
next_pts:112000 next_pts_time:0.112 pkt_pts:1036080 pkt_pts_time:11.512 
pkt_dts:1036080 pkt_dts_time:11.512 off:-11400000 off_time:-11.4
demuxer+ffmpeg -> ist_index:1 type:audio pkt_pts:10080 pkt_pts_time:0.112 
pkt_dts:10080 pkt_dts_time:0.112 off:-11400000 off_time:-11.4
encoder <- type:audio frame_pts:5376 frame_pts_time:0.112 time_base:1/48000
encoder -> type:audio pkt_pts:5376 pkt_pts_time:0.112 pkt_dts:5376 
pkt_dts_time:0.112
demuxer -> ist_index:1 type:audio next_dts:144000 next_dts_time:0.144 
next_pts:144000 next_pts_time:0.144 pkt_pts:1038960 pkt_pts_time:11.544 
pkt_dts:1038960 pkt_dts_time:11.544 off:-11400000 off_time:-11.4
demuxer+ffmpeg -> ist_index:1 type:audio pkt_pts:12960 pkt_pts_time:0.144 
pkt_dts:12960 pkt_dts_time:0.144 off:-11400000 off_time:-11.4
encoder <- type:audio frame_pts:6912 frame_pts_time:0.144 time_base:1/48000
encoder -> type:audio pkt_pts:6912 pkt_pts_time:0.144 pkt_dts:6912 
pkt_dts_time:0.144
demuxer -> ist_index:0 type:video next_dts:125000 next_dts_time:0.125 
next_pts:0 next_pts_time:0 pkt_pts:1037250 pkt_pts_time:11.525 pkt_dts:1037250 
pkt_dts_time:11.525 off:-11400000 off_time:-11.4
demuxer+ffmpeg -> ist_index:0 type:video pkt_pts:11250 pkt_pts_time:0.125 
pkt_dts:11250 pkt_dts_time:0.125 off:-11400000 off_time:-11.4
demuxer -> ist_index:0 type:video next_dts:166667 next_dts_time:0.166667 
next_pts:0 next_pts_time:0 pkt_pts:1041000 pkt_pts_time:11.5667 pkt_dts:1041000 
pkt_dts_time:11.5667 off:-11400000 off_time:-11.4
demuxer+ffmpeg -> ist_index:0 type:video pkt_pts:15000 pkt_pts_time:0.166667 
pkt_dts:15000 pkt_dts_time:0.166667 off:-11400000 off_time:-11.4
demuxer -> ist_index:1 type:audio next_dts:176000 next_dts_time:0.176 
next_pts:176000 next_pts_time:0.176 pkt_pts:1041840 pkt_pts_time:11.576 
pkt_dts:1041840 pkt_dts_time:11.576 off:-11400000 off_time:-11.4
demuxer+ffmpeg -> ist_index:1 type:audio pkt_pts:15840 pkt_pts_time:0.176 
pkt_dts:15840 pkt_dts_time:0.176 off:-11400000 off_time:-11.4
encoder <- type:audio frame_pts:8448 frame_pts_time:0.176 time_base:1/48000
encoder -> type:audio pkt_pts:8448 pkt_pts_time:0.176 pkt_dts:8448 
pkt_dts_time:0.176
demuxer -> ist_index:1 type:audio next_dts:208000 next_dts_time:0.208 
next_pts:208000 next_pts_time:0.208 pkt_pts:1044720 pkt_pts_time:11.608 
pkt_dts:1044720 pkt_dts_time:11.608 off:-11400000 off_time:-11.4
demuxer+ffmpeg -> ist_index:1 type:audio pkt_pts:18720 pkt_pts_time:0.208 
pkt_dts:18720 pkt_dts_time:0.208 off:-11400000 off_time:-11.4
encoder <- type:audio frame_pts:9984 frame_pts_time:0.208 time_base:1/48000
encoder -> type:audio pkt_pts:9984 pkt_pts_time:0.208 pkt_dts:9984 
pkt_dts_time:0.208
demuxer -> ist_index:1 type:audio next_dts:240000 next_dts_time:0.24 
next_pts:240000 next_pts_time:0.24 pkt_pts:1047600 pkt_pts_time:11.64 
pkt_dts:1047600 pkt_dts_time:11.64 off:-11400000 off_time:-11.4
demuxer+ffmpeg -> ist_index:1 type:audio pkt_pts:21600 pkt_pts_time:0.24 
pkt_dts:21600 pkt_dts_time:0.24 off:-11400000 off_time:-11.4
encoder <- type:audio frame_pts:11520 frame_pts_time:0.24 time_base:1/48000
encoder -> type:audio pkt_pts:11520 pkt_pts_time:0.24 pkt_dts:11520 
pkt_dts_time:0.24
demuxer -> ist_index:0 type:video next_dts:208334 next_dts_time:0.208334 
next_pts:0 next_pts_time:0 pkt_pts:1044750 pkt_pts_time:11.6083 pkt_dts:1044750 
pkt_dts_time:11.6083 off:-11400000 off_time:-11.4
demuxer+ffmpeg -> ist_index:0 type:video pkt_pts:18750 pkt_pts_time:0.208333 
pkt_dts:18750 pkt_dts_time:0.208333 off:-11400000 off_time:-11.4
demuxer -> ist_index:0 type:video next_dts:250000 next_dts_time:0.25 next_pts:0 
next_pts_time:0 pkt_pts:1048500 pkt_pts_time:11.65 pkt_dts:1048500 
pkt_dts_time:11.65 off:-11400000 off_time:-11.4
demuxer+ffmpeg -> ist_index:0 type:video pkt_pts:22500 pkt_pts_time:0.25 
pkt_dts:22500 pkt_dts_time:0.25 off:-11400000 off_time:-11.4
demuxer -> ist_index:0 type:video next_dts:291667 next_dts_time:0.291667 
next_pts:0 next_pts_time:0 pkt_pts:1052250 pkt_pts_time:11.6917 pkt_dts:1052250 
pkt_dts_time:11.6917 off:-11400000 off_time:-11.4
demuxer+ffmpeg -> ist_index:0 type:video pkt_pts:26250 pkt_pts_time:0.291667 
pkt_dts:26250 pkt_dts_time:0.291667 off:-11400000 off_time:-11.4
demuxer -> ist_index:1 type:audio next_dts:272000 next_dts_time:0.272 
next_pts:272000 next_pts_time:0.272 pkt_pts:1050480 pkt_pts_time:11.672 
pkt_dts:1050480 pkt_dts_time:11.672 off:-11400000 off_time:-11.4
demuxer+ffmpeg -> ist_index:1 type:audio pkt_pts:24480 pkt_pts_time:0.272 
pkt_dts:24480 pkt_dts_time:0.272 off:-11400000 off_time:-11.4
encoder <- type:audio frame_pts:13056 frame_pts_time:0.272 time_base:1/48000
encoder -> type:audio pkt_pts:13056 pkt_pts_time:0.272 pkt_dts:13056 
pkt_dts_time:0.272
demuxer -> ist_index:1 type:audio next_dts:304000 next_dts_time:0.304 
next_pts:304000 next_pts_time:0.304 pkt_pts:1053360 pkt_pts_time:11.704 
pkt_dts:1053360 pkt_dts_time:11.704 off:-11400000 off_time:-11.4
demuxer+ffmpeg -> ist_index:1 type:audio pkt_pts:27360 pkt_pts_time:0.304 
pkt_dts:27360 pkt_dts_time:0.304 off:-11400000 off_time:-11.4
encoder <- type:audio frame_pts:14592 frame_pts_time:0.304 time_base:1/48000
encoder -> type:audio pkt_pts:14592 pkt_pts_time:0.304 pkt_dts:14592 
pkt_dts_time:0.304
demuxer -> ist_index:1 type:audio next_dts:336000 next_dts_time:0.336 
next_pts:336000 next_pts_time:0.336 pkt_pts:1056240 pkt_pts_time:11.736 
pkt_dts:1056240 pkt_dts_time:11.736 off:-11400000 off_time:-11.4
demuxer+ffmpeg -> ist_index:1 type:audio pkt_pts:30240 pkt_pts_time:0.336 
pkt_dts:30240 pkt_dts_time:0.336 off:-11400000 off_time:-11.4
encoder <- type:audio frame_pts:16128 frame_pts_time:0.336 time_base:1/48000
encoder -> type:audio pkt_pts:16128 pkt_pts_time:0.336 pkt_dts:16128 
pkt_dts_time:0.336
demuxer -> ist_index:0 type:video next_dts:333334 next_dts_time:0.333334 
next_pts:0 next_pts_time:0 pkt_pts:1056000 pkt_pts_time:11.7333 pkt_dts:1056000 
pkt_dts_time:11.7333 off:-11400000 off_time:-11.4
demuxer+ffmpeg -> ist_index:0 type:video pkt_pts:30000 pkt_pts_time:0.333333 
pkt_dts:30000 pkt_dts_time:0.333333 off:-11400000 off_time:-11.4
demuxer -> ist_index:0 type:video next_dts:375000 next_dts_time:0.375 
next_pts:0 next_pts_time:0 pkt_pts:1059750 pkt_pts_time:11.775 pkt_dts:1059750 
pkt_dts_time:11.775 off:-11400000 off_time:-11.4
demuxer+ffmpeg -> ist_index:0 type:video pkt_pts:33750 pkt_pts_time:0.375 
pkt_dts:33750 pkt_dts_time:0.375 off:-11400000 off_time:-11.4
demuxer -> ist_index:0 type:video next_dts:416667 next_dts_time:0.416667 
next_pts:0 next_pts_time:0 pkt_pts:1063500 pkt_pts_time:11.8167 pkt_dts:1063500 
pkt_dts_time:11.8167 off:-11400000 off_time:-11.4
demuxer+ffmpeg -> ist_index:0 type:video pkt_pts:37500 pkt_pts_time:0.416667 
pkt_dts:37500 pkt_dts_time:0.416667 off:-11400000 off_time:-11.4
demuxer -> ist_index:1 type:audio next_dts:368000 next_dts_time:0.368 
next_pts:368000 next_pts_time:0.368 pkt_pts:1059120 pkt_pts_time:11.768 
pkt_dts:1059120 pkt_dts_time:11.768 off:-11400000 off_time:-11.4
demuxer+ffmpeg -> ist_index:1 type:audio pkt_pts:33120 pkt_pts_time:0.368 
pkt_dts:33120 pkt_dts_time:0.368 off:-11400000 off_time:-11.4
encoder <- type:audio frame_pts:17664 frame_pts_time:0.368 time_base:1/48000
encoder -> type:audio pkt_pts:17664 pkt_pts_time:0.368 pkt_dts:17664 
pkt_dts_time:0.368
demuxer -> ist_index:1 type:audio next_dts:400000 next_dts_time:0.4 
next_pts:400000 next_pts_time:0.4 pkt_pts:1062000 pkt_pts_time:11.8 
pkt_dts:1062000 pkt_dts_time:11.8 off:-11400000 off_time:-11.4
demuxer+ffmpeg -> ist_index:1 type:audio pkt_pts:36000 pkt_pts_time:0.4 
pkt_dts:36000 pkt_dts_time:0.4 off:-11400000 off_time:-11.4
encoder <- type:audio frame_pts:19200 frame_pts_time:0.4 time_base:1/48000
encoder -> type:audio pkt_pts:19200 pkt_pts_time:0.4 pkt_dts:19200 
pkt_dts_time:0.4
demuxer -> ist_index:1 type:audio next_dts:432000 next_dts_time:0.432 
next_pts:432000 next_pts_time:0.432 pkt_pts:1064880 pkt_pts_time:11.832 
pkt_dts:1064880 pkt_dts_time:11.832 off:-11400000 off_time:-11.4
demuxer+ffmpeg -> ist_index:1 type:audio pkt_pts:38880 pkt_pts_time:0.432 
pkt_dts:38880 pkt_dts_time:0.432 off:-11400000 off_time:-11.4
encoder <- type:audio frame_pts:20736 frame_pts_time:0.432 time_base:1/48000
encoder -> type:audio pkt_pts:20736 pkt_pts_time:0.432 pkt_dts:20736 
pkt_dts_time:0.432
demuxer -> ist_index:0 type:video next_dts:458334 next_dts_time:0.458334 
next_pts:0 next_pts_time:0 pkt_pts:1067250 pkt_pts_time:11.8583 pkt_dts:1067250 
pkt_dts_time:11.8583 off:-11400000 off_time:-11.4
demuxer+ffmpeg -> ist_index:0 type:video pkt_pts:41250 pkt_pts_time:0.458333 
pkt_dts:41250 pkt_dts_time:0.458333 off:-11400000 off_time:-11.4
demuxer -> ist_index:0 type:video next_dts:500000 next_dts_time:0.5 next_pts:0 
next_pts_time:0 pkt_pts:1071000 pkt_pts_time:11.9 pkt_dts:1071000 
pkt_dts_time:11.9 off:-11400000 off_time:-11.4
demuxer+ffmpeg -> ist_index:0 type:video pkt_pts:45000 pkt_pts_time:0.5 
pkt_dts:45000 pkt_dts_time:0.5 off:-11400000 off_time:-11.4
decoder -> ist_index:0 type:video frame_pts:37500 frame_pts_time:0.416667 
best_effort_ts:37500 best_effort_ts_time:0.416667 keyframe:1 frame_type:1 
time_base:1/90000
Output #0, null, to '/dev/null':
  Metadata:
    encoder         : Lavf57.83.100
    Stream #0:0: Video: wrapped_avframe, yuv420p, 1280x720 [SAR 3:4 DAR 4:3], 
q=2-31, 200 kb/s, 24 fps, 24 tbn, 24 tbc
    Metadata:
      encoder         : Lavc57.107.100 wrapped_avframe
    Stream #0:1: Audio: pcm_s16le, 48000 Hz, stereo, s16, 1536 kb/s
    Metadata:
      encoder         : Lavc57.107.100 pcm_s16le
muxer <- type:audio pkt_pts:0 pkt_pts_time:0 pkt_dts:0 pkt_dts_time:0 size:3072
muxer <- type:audio pkt_pts:768 pkt_pts_time:0.016 pkt_dts:768 
pkt_dts_time:0.016 size:6144
muxer <- type:audio pkt_pts:2304 pkt_pts_time:0.048 pkt_dts:2304 
pkt_dts_time:0.048 size:6144
muxer <- type:audio pkt_pts:3840 pkt_pts_time:0.08 pkt_dts:3840 
pkt_dts_time:0.08 size:6144
muxer <- type:audio pkt_pts:5376 pkt_pts_time:0.112 pkt_dts:5376 
pkt_dts_time:0.112 size:6144
muxer <- type:audio pkt_pts:6912 pkt_pts_time:0.144 pkt_dts:6912 
pkt_dts_time:0.144 size:6144
muxer <- type:audio pkt_pts:8448 pkt_pts_time:0.176 pkt_dts:8448 
pkt_dts_time:0.176 size:6144
muxer <- type:audio pkt_pts:9984 pkt_pts_time:0.208 pkt_dts:9984 
pkt_dts_time:0.208 size:6144
muxer <- type:audio pkt_pts:11520 pkt_pts_time:0.24 pkt_dts:11520 
pkt_dts_time:0.24 size:6144
muxer <- type:audio pkt_pts:13056 pkt_pts_time:0.272 pkt_dts:13056 
pkt_dts_time:0.272 size:6144
muxer <- type:audio pkt_pts:14592 pkt_pts_time:0.304 pkt_dts:14592 
pkt_dts_time:0.304 size:6144
muxer <- type:audio pkt_pts:16128 pkt_pts_time:0.336 pkt_dts:16128 
pkt_dts_time:0.336 size:6144
muxer <- type:audio pkt_pts:17664 pkt_pts_time:0.368 pkt_dts:17664 
pkt_dts_time:0.368 size:6144
muxer <- type:audio pkt_pts:19200 pkt_pts_time:0.4 pkt_dts:19200 
pkt_dts_time:0.4 size:6144
muxer <- type:audio pkt_pts:20736 pkt_pts_time:0.432 pkt_dts:20736 
pkt_dts_time:0.432 size:6144
filter -> pts:10 pts_time:0.416667 exact:10.000008 time_base:1/24
encoder <- type:video frame_pts:10 frame_pts_time:0.416667 time_base:1/24
encoder -> type:video pkt_pts:10 pkt_pts_time:0.416667 pkt_dts:10 
pkt_dts_time:0.416667
    Last message repeated 1 times
muxer <- type:video pkt_pts:10 pkt_pts_time:0.416667 pkt_dts:10 
pkt_dts_time:0.416667 size:528
demuxer -> ist_index:1 type:audio next_dts:464000 next_dts_time:0.464 
next_pts:464000 next_pts_time:0.464 pkt_pts:1067760 pkt_pts_time:11.864 
pkt_dts:1067760 pkt_dts_time:11.864 off:-11400000 off_time:-11.4
demuxer+ffmpeg -> ist_index:1 type:audio pkt_pts:41760 pkt_pts_time:0.464 
pkt_dts:41760 pkt_dts_time:0.464 off:-11400000 off_time:-11.4
encoder <- type:audio frame_pts:22272 frame_pts_time:0.464 time_base:1/48000
encoder -> type:audio pkt_pts:22272 pkt_pts_time:0.464 pkt_dts:22272 
pkt_dts_time:0.464
muxer <- type:audio pkt_pts:22272 pkt_pts_time:0.464 pkt_dts:22272 
pkt_dts_time:0.464 size:6144
demuxer -> ist_index:1 type:audio next_dts:496000 next_dts_time:0.496 
next_pts:496000 next_pts_time:0.496 pkt_pts:1070640 pkt_pts_time:11.896 
pkt_dts:1070640 pkt_dts_time:11.896 off:-11400000 off_time:-11.4
demuxer+ffmpeg -> ist_index:1 type:audio pkt_pts:44640 pkt_pts_time:0.496 
pkt_dts:44640 pkt_dts_time:0.496 off:-11400000 off_time:-11.4
encoder <- type:audio frame_pts:23808 frame_pts_time:0.496 time_base:1/48000
encoder -> type:audio pkt_pts:23808 pkt_pts_time:0.496 pkt_dts:23808 
pkt_dts_time:0.496
muxer <- type:audio pkt_pts:23808 pkt_pts_time:0.496 pkt_dts:23808 
pkt_dts_time:0.496 size:6144
demuxer -> ist_index:1 type:audio next_dts:528000 next_dts_time:0.528 
next_pts:528000 next_pts_time:0.528 pkt_pts:1073520 pkt_pts_time:11.928 
pkt_dts:1073520 pkt_dts_time:11.928 off:-11400000 off_time:-11.4
demuxer+ffmpeg -> ist_index:1 type:audio pkt_pts:47520 pkt_pts_time:0.528 
pkt_dts:47520 pkt_dts_time:0.528 off:-11400000 off_time:-11.4
encoder <- type:audio frame_pts:25344 frame_pts_time:0.528 time_base:1/48000
encoder -> type:audio pkt_pts:25344 pkt_pts_time:0.528 pkt_dts:25344 
pkt_dts_time:0.528
muxer <- type:audio pkt_pts:25344 pkt_pts_time:0.528 pkt_dts:25344 
pkt_dts_time:0.528 size:6144
demuxer -> ist_index:0 type:video next_dts:541667 next_dts_time:0.541667 
next_pts:458334 next_pts_time:0.458334 pkt_pts:1074750 pkt_pts_time:11.9417 
pkt_dts:1074750 pkt_dts_time:11.9417 off:-11400000 off_time:-11.4
demuxer+ffmpeg -> ist_index:0 type:video pkt_pts:48750 pkt_pts_time:0.541667 
pkt_dts:48750 pkt_dts_time:0.541667 off:-11400000 off_time:-11.4
decoder -> ist_index:0 type:video frame_pts:41250 frame_pts_time:0.458333 
best_effort_ts:41250 best_effort_ts_time:0.458333 keyframe:0 frame_type:2 
time_base:1/90000
filter -> pts:11 pts_time:0.458333 exact:11.000008 time_base:1/24
encoder <- type:video frame_pts:11 frame_pts_time:0.458333 time_base:1/24
encoder -> type:video pkt_pts:11 pkt_pts_time:0.458333 pkt_dts:11 
pkt_dts_time:0.458333
    Last message repeated 1 times
muxer <- type:video pkt_pts:11 pkt_pts_time:0.458333 pkt_dts:11 
pkt_dts_time:0.458333 size:528
demuxer -> ist_index:0 type:video next_dts:583334 next_dts_time:0.583334 
next_pts:500000 next_pts_time:0.5 pkt_pts:1078500 pkt_pts_time:11.9833 
pkt_dts:1078500 pkt_dts_time:11.9833 off:-11400000 off_time:-11.4
demuxer+ffmpeg -> ist_index:0 type:video pkt_pts:52500 pkt_pts_time:0.583333 
pkt_dts:52500 pkt_dts_time:0.583333 off:-11400000 off_time:-11.4
decoder -> ist_index:0 type:video frame_pts:45000 frame_pts_time:0.5 
best_effort_ts:45000 best_effort_ts_time:0.5 keyframe:0 frame_type:2 
time_base:1/90000
filter -> pts:12 pts_time:0.5 exact:12.000008 time_base:1/24
encoder <- type:video frame_pts:12 frame_pts_time:0.5 time_base:1/24
encoder -> type:video pkt_pts:12 pkt_pts_time:0.5 pkt_dts:12 pkt_dts_time:0.5
    Last message repeated 1 times
muxer <- type:video pkt_pts:12 pkt_pts_time:0.5 pkt_dts:12 pkt_dts_time:0.5 
size:528
demuxer -> ist_index:1 type:audio next_dts:560000 next_dts_time:0.56 
next_pts:560000 next_pts_time:0.56 pkt_pts:1076400 pkt_pts_time:11.96 
pkt_dts:1076400 pkt_dts_time:11.96 off:-11400000 off_time:-11.4
demuxer+ffmpeg -> ist_index:1 type:audio pkt_pts:50400 pkt_pts_time:0.56 
pkt_dts:50400 pkt_dts_time:0.56 off:-11400000 off_time:-11.4
encoder <- type:audio frame_pts:26880 frame_pts_time:0.56 time_base:1/48000
encoder -> type:audio pkt_pts:26880 pkt_pts_time:0.56 pkt_dts:26880 
pkt_dts_time:0.56
muxer <- type:audio pkt_pts:26880 pkt_pts_time:0.56 pkt_dts:26880 
pkt_dts_time:0.56 size:6144
demuxer -> ist_index:1 type:audio next_dts:592000 next_dts_time:0.592 
next_pts:592000 next_pts_time:0.592 pkt_pts:1079280 pkt_pts_time:11.992 
pkt_dts:1079280 pkt_dts_time:11.992 off:-11400000 off_time:-11.4
demuxer+ffmpeg -> ist_index:1 type:audio pkt_pts:53280 pkt_pts_time:0.592 
pkt_dts:53280 pkt_dts_time:0.592 off:-11400000 off_time:-11.4
encoder <- type:audio frame_pts:28416 frame_pts_time:0.592 time_base:1/48000
encoder -> type:audio pkt_pts:28416 pkt_pts_time:0.592 pkt_dts:28416 
pkt_dts_time:0.592
muxer <- type:audio pkt_pts:28416 pkt_pts_time:0.592 pkt_dts:28416 
pkt_dts_time:0.592 size:6144
demuxer -> ist_index:1 type:audio next_dts:624000 next_dts_time:0.624 
next_pts:624000 next_pts_time:0.624 pkt_pts:1082160 pkt_pts_time:12.024 
pkt_dts:1082160 pkt_dts_time:12.024 off:-11400000 off_time:-11.4
demuxer+ffmpeg -> ist_index:1 type:audio pkt_pts:56160 pkt_pts_time:0.624 
pkt_dts:56160 pkt_dts_time:0.624 off:-11400000 off_time:-11.4
encoder <- type:audio frame_pts:29952 frame_pts_time:0.624 time_base:1/48000
encoder -> type:audio pkt_pts:29952 pkt_pts_time:0.624 pkt_dts:29952 
pkt_dts_time:0.624
muxer <- type:audio pkt_pts:29952 pkt_pts_time:0.624 pkt_dts:29952 
pkt_dts_time:0.624 size:6144
demuxer -> ist_index:0 type:video next_dts:625000 next_dts_time:0.625 
next_pts:541667 next_pts_time:0.541667 pkt_pts:1082250 pkt_pts_time:12.025 
pkt_dts:1082250 pkt_dts_time:12.025 off:-11400000 off_time:-11.4
demuxer+ffmpeg -> ist_index:0 type:video pkt_pts:56250 pkt_pts_time:0.625 
pkt_dts:56250 pkt_dts_time:0.625 off:-11400000 off_time:-11.4
decoder -> ist_index:0 type:video frame_pts:48750 frame_pts_time:0.541667 
best_effort_ts:48750 best_effort_ts_time:0.541667 keyframe:0 frame_type:2 
time_base:1/90000
filter -> pts:13 pts_time:0.541667 exact:13.000008 time_base:1/24
encoder <- type:video frame_pts:13 frame_pts_time:0.541667 time_base:1/24
encoder -> type:video pkt_pts:13 pkt_pts_time:0.541667 pkt_dts:13 
pkt_dts_time:0.541667
    Last message repeated 1 times
muxer <- type:video pkt_pts:13 pkt_pts_time:0.541667 pkt_dts:13 
pkt_dts_time:0.541667 size:528
demuxer -> ist_index:0 type:video next_dts:666667 next_dts_time:0.666667 
next_pts:583334 next_pts_time:0.583334 pkt_pts:1086000 pkt_pts_time:12.0667 
pkt_dts:1086000 pkt_dts_time:12.0667 off:-11400000 off_time:-11.4
demuxer+ffmpeg -> ist_index:0 type:video pkt_pts:60000 pkt_pts_time:0.666667 
pkt_dts:60000 pkt_dts_time:0.666667 off:-11400000 off_time:-11.4
decoder -> ist_index:0 type:video frame_pts:52500 frame_pts_time:0.583333 
best_effort_ts:52500 best_effort_ts_time:0.583333 keyframe:0 frame_type:2 
time_base:1/90000
filter -> pts:14 pts_time:0.583333 exact:14.000008 time_base:1/24
encoder <- type:video frame_pts:14 frame_pts_time:0.583333 time_base:1/24
encoder -> type:video pkt_pts:14 pkt_pts_time:0.583333 pkt_dts:14 
pkt_dts_time:0.583333
    Last message repeated 1 times
muxer <- type:video pkt_pts:14 pkt_pts_time:0.583333 pkt_dts:14 
pkt_dts_time:0.583333 size:528
demuxer -> ist_index:1 type:audio next_dts:656000 next_dts_time:0.656 
next_pts:656000 next_pts_time:0.656 pkt_pts:1085040 pkt_pts_time:12.056 
pkt_dts:1085040 pkt_dts_time:12.056 off:-11400000 off_time:-11.4
demuxer+ffmpeg -> ist_index:1 type:audio pkt_pts:59040 pkt_pts_time:0.656 
pkt_dts:59040 pkt_dts_time:0.656 off:-11400000 off_time:-11.4
encoder <- type:audio frame_pts:31488 frame_pts_time:0.656 time_base:1/48000
encoder -> type:audio pkt_pts:31488 pkt_pts_time:0.656 pkt_dts:31488 
pkt_dts_time:0.656
muxer <- type:audio pkt_pts:31488 pkt_pts_time:0.656 pkt_dts:31488 
pkt_dts_time:0.656 size:6144
demuxer -> ist_index:1 type:audio next_dts:688000 next_dts_time:0.688 
next_pts:688000 next_pts_time:0.688 pkt_pts:1087920 pkt_pts_time:12.088 
pkt_dts:1087920 pkt_dts_time:12.088 off:-11400000 off_time:-11.4
demuxer+ffmpeg -> ist_index:1 type:audio pkt_pts:61920 pkt_pts_time:0.688 
pkt_dts:61920 pkt_dts_time:0.688 off:-11400000 off_time:-11.4
encoder <- type:audio frame_pts:33024 frame_pts_time:0.688 time_base:1/48000
encoder -> type:audio pkt_pts:33024 pkt_pts_time:0.688 pkt_dts:33024 
pkt_dts_time:0.688
muxer <- type:audio pkt_pts:33024 pkt_pts_time:0.688 pkt_dts:33024 
pkt_dts_time:0.688 size:6144
demuxer -> ist_index:1 type:audio next_dts:720000 next_dts_time:0.72 
next_pts:720000 next_pts_time:0.72 pkt_pts:1090800 pkt_pts_time:12.12 
pkt_dts:1090800 pkt_dts_time:12.12 off:-11400000 off_time:-11.4
demuxer+ffmpeg -> ist_index:1 type:audio pkt_pts:64800 pkt_pts_time:0.72 
pkt_dts:64800 pkt_dts_time:0.72 off:-11400000 off_time:-11.4
encoder <- type:audio frame_pts:34560 frame_pts_time:0.72 time_base:1/48000
encoder -> type:audio pkt_pts:34560 pkt_pts_time:0.72 pkt_dts:34560 
pkt_dts_time:0.72
muxer <- type:audio pkt_pts:34560 pkt_pts_time:0.72 pkt_dts:34560 
pkt_dts_time:0.72 size:6144
demuxer -> ist_index:0 type:video next_dts:708334 next_dts_time:0.708334 
next_pts:625000 next_pts_time:0.625 pkt_pts:1089750 pkt_pts_time:12.1083 
pkt_dts:1089750 pkt_dts_time:12.1083 off:-11400000 off_time:-11.4
demuxer+ffmpeg -> ist_index:0 type:video pkt_pts:63750 pkt_pts_time:0.708333 
pkt_dts:63750 pkt_dts_time:0.708333 off:-11400000 off_time:-11.4
decoder -> ist_index:0 type:video frame_pts:56250 frame_pts_time:0.625 
best_effort_ts:56250 best_effort_ts_time:0.625 keyframe:0 frame_type:2 
time_base:1/90000
filter -> pts:15 pts_time:0.625 exact:15.000008 time_base:1/24
encoder <- type:video frame_pts:15 frame_pts_time:0.625 time_base:1/24
encoder -> type:video pkt_pts:15 pkt_pts_time:0.625 pkt_dts:15 
pkt_dts_time:0.625
    Last message repeated 1 times
muxer <- type:video pkt_pts:15 pkt_pts_time:0.625 pkt_dts:15 pkt_dts_time:0.625 
size:528
demuxer -> ist_index:0 type:video next_dts:750000 next_dts_time:0.75 
next_pts:666667 next_pts_time:0.666667 pkt_pts:1093500 pkt_pts_time:12.15 
pkt_dts:1093500 pkt_dts_time:12.15 off:-11400000 off_time:-11.4
demuxer+ffmpeg -> ist_index:0 type:video pkt_pts:67500 pkt_pts_time:0.75 
pkt_dts:67500 pkt_dts_time:0.75 off:-11400000 off_time:-11.4
decoder -> ist_index:0 type:video frame_pts:60000 frame_pts_time:0.666667 
best_effort_ts:60000 best_effort_ts_time:0.666667 keyframe:0 frame_type:2 
time_base:1/90000
filter -> pts:16 pts_time:0.666667 exact:16.000008 time_base:1/24
encoder <- type:video frame_pts:16 frame_pts_time:0.666667 time_base:1/24
encoder -> type:video pkt_pts:16 pkt_pts_time:0.666667 pkt_dts:16 
pkt_dts_time:0.666667
    Last message repeated 1 times
muxer <- type:video pkt_pts:16 pkt_pts_time:0.666667 pkt_dts:16 
pkt_dts_time:0.666667 size:528
demuxer -> ist_index:1 type:audio next_dts:752000 next_dts_time:0.752 
next_pts:752000 next_pts_time:0.752 pkt_pts:1093680 pkt_pts_time:12.152 
pkt_dts:1093680 pkt_dts_time:12.152 off:-11400000 off_time:-11.4
demuxer+ffmpeg -> ist_index:1 type:audio pkt_pts:67680 pkt_pts_time:0.752 
pkt_dts:67680 pkt_dts_time:0.752 off:-11400000 off_time:-11.4
encoder <- type:audio frame_pts:36096 frame_pts_time:0.752 time_base:1/48000
encoder -> type:audio pkt_pts:36096 pkt_pts_time:0.752 pkt_dts:36096 
pkt_dts_time:0.752
muxer <- type:audio pkt_pts:36096 pkt_pts_time:0.752 pkt_dts:36096 
pkt_dts_time:0.752 size:6144
demuxer -> ist_index:1 type:audio next_dts:784000 next_dts_time:0.784 
next_pts:784000 next_pts_time:0.784 pkt_pts:1096560 pkt_pts_time:12.184 
pkt_dts:1096560 pkt_dts_time:12.184 off:-11400000 off_time:-11.4
demuxer+ffmpeg -> ist_index:1 type:audio pkt_pts:70560 pkt_pts_time:0.784 
pkt_dts:70560 pkt_dts_time:0.784 off:-11400000 off_time:-11.4
encoder <- type:audio frame_pts:37632 frame_pts_time:0.784 time_base:1/48000
encoder -> type:audio pkt_pts:37632 pkt_pts_time:0.784 pkt_dts:37632 
pkt_dts_time:0.784
muxer <- type:audio pkt_pts:37632 pkt_pts_time:0.784 pkt_dts:37632 
pkt_dts_time:0.784 size:6144
demuxer -> ist_index:1 type:audio next_dts:816000 next_dts_time:0.816 
next_pts:816000 next_pts_time:0.816 pkt_pts:1099440 pkt_pts_time:12.216 
pkt_dts:1099440 pkt_dts_time:12.216 off:-11400000 off_time:-11.4
demuxer+ffmpeg -> ist_index:1 type:audio pkt_pts:73440 pkt_pts_time:0.816 
pkt_dts:73440 pkt_dts_time:0.816 off:-11400000 off_time:-11.4
encoder <- type:audio frame_pts:39168 frame_pts_time:0.816 time_base:1/48000
encoder -> type:audio pkt_pts:39168 pkt_pts_time:0.816 pkt_dts:39168 
pkt_dts_time:0.816
muxer <- type:audio pkt_pts:39168 pkt_pts_time:0.816 pkt_dts:39168 
pkt_dts_time:0.816 size:6144
demuxer -> ist_index:0 type:video next_dts:791667 next_dts_time:0.791667 
next_pts:708334 next_pts_time:0.708334 pkt_pts:1097250 pkt_pts_time:12.1917 
pkt_dts:1097250 pkt_dts_time:12.1917 off:-11400000 off_time:-11.4
demuxer+ffmpeg -> ist_index:0 type:video pkt_pts:71250 pkt_pts_time:0.791667 
pkt_dts:71250 pkt_dts_time:0.791667 off:-11400000 off_time:-11.4
decoder -> ist_index:0 type:video frame_pts:63750 frame_pts_time:0.708333 
best_effort_ts:63750 best_effort_ts_time:0.708333 keyframe:0 frame_type:2 
time_base:1/90000
filter -> pts:17 pts_time:0.708333 exact:17.000008 time_base:1/24
encoder <- type:video frame_pts:17 frame_pts_time:0.708333 time_base:1/24
encoder -> type:video pkt_pts:17 pkt_pts_time:0.708333 pkt_dts:17 
pkt_dts_time:0.708333
    Last message repeated 1 times
muxer <- type:video pkt_pts:17 pkt_pts_time:0.708333 pkt_dts:17 
pkt_dts_time:0.708333 size:528
demuxer -> ist_index:0 type:video next_dts:833334 next_dts_time:0.833334 
next_pts:750000 next_pts_time:0.75 pkt_pts:1101000 pkt_pts_time:12.2333 
pkt_dts:1101000 pkt_dts_time:12.2333 off:-11400000 off_time:-11.4
demuxer+ffmpeg -> ist_index:0 type:video pkt_pts:75000 pkt_pts_time:0.833333 
pkt_dts:75000 pkt_dts_time:0.833333 off:-11400000 off_time:-11.4
decoder -> ist_index:0 type:video frame_pts:67500 frame_pts_time:0.75 
best_effort_ts:67500 best_effort_ts_time:0.75 keyframe:0 frame_type:2 
time_base:1/90000
filter -> pts:18 pts_time:0.75 exact:18.000008 time_base:1/24
encoder <- type:video frame_pts:18 frame_pts_time:0.75 time_base:1/24
encoder -> type:video pkt_pts:18 pkt_pts_time:0.75 pkt_dts:18 pkt_dts_time:0.75
    Last message repeated 1 times
muxer <- type:video pkt_pts:18 pkt_pts_time:0.75 pkt_dts:18 pkt_dts_time:0.75 
size:528
demuxer -> ist_index:1 type:audio next_dts:848000 next_dts_time:0.848 
next_pts:848000 next_pts_time:0.848 pkt_pts:1102320 pkt_pts_time:12.248 
pkt_dts:1102320 pkt_dts_time:12.248 off:-11400000 off_time:-11.4
demuxer+ffmpeg -> ist_index:1 type:audio pkt_pts:76320 pkt_pts_time:0.848 
pkt_dts:76320 pkt_dts_time:0.848 off:-11400000 off_time:-11.4
encoder <- type:audio frame_pts:40704 frame_pts_time:0.848 time_base:1/48000
encoder -> type:audio pkt_pts:40704 pkt_pts_time:0.848 pkt_dts:40704 
pkt_dts_time:0.848
muxer <- type:audio pkt_pts:40704 pkt_pts_time:0.848 pkt_dts:40704 
pkt_dts_time:0.848 size:6144
demuxer -> ist_index:1 type:audio next_dts:880000 next_dts_time:0.88 
next_pts:880000 next_pts_time:0.88 pkt_pts:1105200 pkt_pts_time:12.28 
pkt_dts:1105200 pkt_dts_time:12.28 off:-11400000 off_time:-11.4
demuxer+ffmpeg -> ist_index:1 type:audio pkt_pts:79200 pkt_pts_time:0.88 
pkt_dts:79200 pkt_dts_time:0.88 off:-11400000 off_time:-11.4
encoder <- type:audio frame_pts:42240 frame_pts_time:0.88 time_base:1/48000
encoder -> type:audio pkt_pts:42240 pkt_pts_time:0.88 pkt_dts:42240 
pkt_dts_time:0.88
muxer <- type:audio pkt_pts:42240 pkt_pts_time:0.88 pkt_dts:42240 
pkt_dts_time:0.88 size:6144
demuxer -> ist_index:1 type:audio next_dts:912000 next_dts_time:0.912 
next_pts:912000 next_pts_time:0.912 pkt_pts:1108080 pkt_pts_time:12.312 
pkt_dts:1108080 pkt_dts_time:12.312 off:-11400000 off_time:-11.4
demuxer+ffmpeg -> ist_index:1 type:audio pkt_pts:82080 pkt_pts_time:0.912 
pkt_dts:82080 pkt_dts_time:0.912 off:-11400000 off_time:-11.4
encoder <- type:audio frame_pts:43776 frame_pts_time:0.912 time_base:1/48000
encoder -> type:audio pkt_pts:43776 pkt_pts_time:0.912 pkt_dts:43776 
pkt_dts_time:0.912
muxer <- type:audio pkt_pts:43776 pkt_pts_time:0.912 pkt_dts:43776 
pkt_dts_time:0.912 size:6144
demuxer -> ist_index:0 type:video next_dts:875000 next_dts_time:0.875 
next_pts:791667 next_pts_time:0.791667 pkt_pts:1104750 pkt_pts_time:12.275 
pkt_dts:1104750 pkt_dts_time:12.275 off:-11400000 off_time:-11.4
demuxer+ffmpeg -> ist_index:0 type:video pkt_pts:78750 pkt_pts_time:0.875 
pkt_dts:78750 pkt_dts_time:0.875 off:-11400000 off_time:-11.4
decoder -> ist_index:0 type:video frame_pts:71250 frame_pts_time:0.791667 
best_effort_ts:71250 best_effort_ts_time:0.791667 keyframe:0 frame_type:2 
time_base:1/90000
filter -> pts:19 pts_time:0.791667 exact:19.000008 time_base:1/24
encoder <- type:video frame_pts:19 frame_pts_time:0.791667 time_base:1/24
encoder -> type:video pkt_pts:19 pkt_pts_time:0.791667 pkt_dts:19 
pkt_dts_time:0.791667
    Last message repeated 1 times
muxer <- type:video pkt_pts:19 pkt_pts_time:0.791667 pkt_dts:19 
pkt_dts_time:0.791667 size:528
demuxer -> ist_index:0 type:video next_dts:916667 next_dts_time:0.916667 
next_pts:833334 next_pts_time:0.833334 pkt_pts:1108500 pkt_pts_time:12.3167 
pkt_dts:1108500 pkt_dts_time:12.3167 off:-11400000 off_time:-11.4
demuxer+ffmpeg -> ist_index:0 type:video pkt_pts:82500 pkt_pts_time:0.916667 
pkt_dts:82500 pkt_dts_time:0.916667 off:-11400000 off_time:-11.4
decoder -> ist_index:0 type:video frame_pts:75000 frame_pts_time:0.833333 
best_effort_ts:75000 best_effort_ts_time:0.833333 keyframe:0 frame_type:2 
time_base:1/90000
filter -> pts:20 pts_time:0.833333 exact:20.000008 time_base:1/24
encoder <- type:video frame_pts:20 frame_pts_time:0.833333 time_base:1/24
encoder -> type:video pkt_pts:20 pkt_pts_time:0.833333 pkt_dts:20 
pkt_dts_time:0.833333
    Last message repeated 1 times
muxer <- type:video pkt_pts:20 pkt_pts_time:0.833333 pkt_dts:20 
pkt_dts_time:0.833333 size:528
demuxer -> ist_index:0 type:video next_dts:958334 next_dts_time:0.958334 
next_pts:875000 next_pts_time:0.875 pkt_pts:1112250 pkt_pts_time:12.3583 
pkt_dts:1112250 pkt_dts_time:12.3583 off:-11400000 off_time:-11.4
demuxer+ffmpeg -> ist_index:0 type:video pkt_pts:86250 pkt_pts_time:0.958333 
pkt_dts:86250 pkt_dts_time:0.958333 off:-11400000 off_time:-11.4
decoder -> ist_index:0 type:video frame_pts:78750 frame_pts_time:0.875 
best_effort_ts:78750 best_effort_ts_time:0.875 keyframe:0 frame_type:2 
time_base:1/90000
filter -> pts:21 pts_time:0.875 exact:21.000008 time_base:1/24
encoder <- type:video frame_pts:21 frame_pts_time:0.875 time_base:1/24
encoder -> type:video pkt_pts:21 pkt_pts_time:0.875 pkt_dts:21 
pkt_dts_time:0.875
    Last message repeated 1 times
muxer <- type:video pkt_pts:21 pkt_pts_time:0.875 pkt_dts:21 pkt_dts_time:0.875 
size:528
demuxer -> ist_index:1 type:audio next_dts:944000 next_dts_time:0.944 
next_pts:944000 next_pts_time:0.944 pkt_pts:1110960 pkt_pts_time:12.344 
pkt_dts:1110960 pkt_dts_time:12.344 off:-11400000 off_time:-11.4
demuxer+ffmpeg -> ist_index:1 type:audio pkt_pts:84960 pkt_pts_time:0.944 
pkt_dts:84960 pkt_dts_time:0.944 off:-11400000 off_time:-11.4
encoder <- type:audio frame_pts:45312 frame_pts_time:0.944 time_base:1/48000
encoder -> type:audio pkt_pts:45312 pkt_pts_time:0.944 pkt_dts:45312 
pkt_dts_time:0.944
muxer <- type:audio pkt_pts:45312 pkt_pts_time:0.944 pkt_dts:45312 
pkt_dts_time:0.944 size:6144
demuxer -> ist_index:1 type:audio next_dts:976000 next_dts_time:0.976 
next_pts:976000 next_pts_time:0.976 pkt_pts:1113840 pkt_pts_time:12.376 
pkt_dts:1113840 pkt_dts_time:12.376 off:-11400000 off_time:-11.4
demuxer+ffmpeg -> ist_index:1 type:audio pkt_pts:87840 pkt_pts_time:0.976 
pkt_dts:87840 pkt_dts_time:0.976 off:-11400000 off_time:-11.4
encoder <- type:audio frame_pts:46848 frame_pts_time:0.976 time_base:1/48000
encoder -> type:audio pkt_pts:46848 pkt_pts_time:0.976 pkt_dts:46848 
pkt_dts_time:0.976
muxer <- type:audio pkt_pts:46848 pkt_pts_time:0.976 pkt_dts:46848 
pkt_dts_time:0.976 size:4608
demuxer -> ist_index:1 type:audio next_dts:1008000 next_dts_time:1.008 
next_pts:1008000 next_pts_time:1.008 pkt_pts:1116720 pkt_pts_time:12.408 
pkt_dts:1116720 pkt_dts_time:12.408 off:-11400000 off_time:-11.4
demuxer+ffmpeg -> ist_index:1 type:audio pkt_pts:90720 pkt_pts_time:1.008 
pkt_dts:90720 pkt_dts_time:1.008 off:-11400000 off_time:-11.4
demuxer -> ist_index:0 type:video next_dts:1000000 next_dts_time:1 
next_pts:916667 next_pts_time:0.916667 pkt_pts:1116000 pkt_pts_time:12.4 
pkt_dts:1116000 pkt_dts_time:12.4 off:-11400000 off_time:-11.4
demuxer+ffmpeg -> ist_index:0 type:video pkt_pts:90000 pkt_pts_time:1 
pkt_dts:90000 pkt_dts_time:1 off:-11400000 off_time:-11.4
decoder -> ist_index:0 type:video frame_pts:82500 frame_pts_time:0.916667 
best_effort_ts:82500 best_effort_ts_time:0.916667 keyframe:0 frame_type:2 
time_base:1/90000
filter -> pts:22 pts_time:0.916667 exact:22.000008 time_base:1/24
encoder <- type:video frame_pts:22 frame_pts_time:0.916667 time_base:1/24
encoder -> type:video pkt_pts:22 pkt_pts_time:0.916667 pkt_dts:22 
pkt_dts_time:0.916667
    Last message repeated 1 times
muxer <- type:video pkt_pts:22 pkt_pts_time:0.916667 pkt_dts:22 
pkt_dts_time:0.916667 size:528
demuxer -> ist_index:0 type:video next_dts:1041667 next_dts_time:1.04167 
next_pts:958334 next_pts_time:0.958334 pkt_pts:1119750 pkt_pts_time:12.4417 
pkt_dts:1119750 pkt_dts_time:12.4417 off:-11400000 off_time:-11.4
demuxer+ffmpeg -> ist_index:0 type:video pkt_pts:93750 pkt_pts_time:1.04167 
pkt_dts:93750 pkt_dts_time:1.04167 off:-11400000 off_time:-11.4
decoder -> ist_index:0 type:video frame_pts:86250 frame_pts_time:0.958333 
best_effort_ts:86250 best_effort_ts_time:0.958333 keyframe:0 frame_type:2 
time_base:1/90000
filter -> pts:23 pts_time:0.958333 exact:23.000008 time_base:1/24
encoder <- type:video frame_pts:23 frame_pts_time:0.958333 time_base:1/24
encoder -> type:video pkt_pts:23 pkt_pts_time:0.958333 pkt_dts:23 
pkt_dts_time:0.958333
    Last message repeated 1 times
muxer <- type:video pkt_pts:23 pkt_pts_time:0.958333 pkt_dts:23 
pkt_dts_time:0.958333 size:528
demuxer -> ist_index:0 type:video next_dts:1083334 next_dts_time:1.08333 
next_pts:1000000 next_pts_time:1 pkt_pts:1123500 pkt_pts_time:12.4833 
pkt_dts:1123500 pkt_dts_time:12.4833 off:-11400000 off_time:-11.4
demuxer+ffmpeg -> ist_index:0 type:video pkt_pts:97500 pkt_pts_time:1.08333 
pkt_dts:97500 pkt_dts_time:1.08333 off:-11400000 off_time:-11.4
decoder -> ist_index:0 type:video frame_pts:90000 frame_pts_time:1 
best_effort_ts:90000 best_effort_ts_time:1 keyframe:0 frame_type:2 
time_base:1/90000
filter -> pts:24 pts_time:1 exact:24.000008 time_base:1/24
encoder <- type:video frame_pts:24 frame_pts_time:1 time_base:1/24
encoder -> type:video pkt_pts:24 pkt_pts_time:1 pkt_dts:24 pkt_dts_time:1
    Last message repeated 1 times
muxer <- type:video pkt_pts:24 pkt_pts_time:1 pkt_dts:24 pkt_dts_time:1 size:528
demuxer -> ist_index:1 type:audio next_dts:1040000 next_dts_time:1.04 
next_pts:1040000 next_pts_time:1.04 pkt_pts:1119600 pkt_pts_time:12.44 
pkt_dts:1119600 pkt_dts_time:12.44 off:-11400000 off_time:-11.4
demuxer+ffmpeg -> ist_index:1 type:audio pkt_pts:93600 pkt_pts_time:1.04 
pkt_dts:93600 pkt_dts_time:1.04 off:-11400000 off_time:-11.4
demuxer -> ist_index:1 type:audio next_dts:1072000 next_dts_time:1.072 
next_pts:1072000 next_pts_time:1.072 pkt_pts:1122480 pkt_pts_time:12.472 
pkt_dts:1122480 pkt_dts_time:12.472 off:-11400000 off_time:-11.4
demuxer+ffmpeg -> ist_index:1 type:audio pkt_pts:96480 pkt_pts_time:1.072 
pkt_dts:96480 pkt_dts_time:1.072 off:-11400000 off_time:-11.4
demuxer -> ist_index:1 type:audio next_dts:1104000 next_dts_time:1.104 
next_pts:1104000 next_pts_time:1.104 pkt_pts:1125360 pkt_pts_time:12.504 
pkt_dts:1125360 pkt_dts_time:12.504 off:-11400000 off_time:-11.4
demuxer+ffmpeg -> ist_index:1 type:audio pkt_pts:99360 pkt_pts_time:1.104 
pkt_dts:99360 pkt_dts_time:1.104 off:-11400000 off_time:-11.4
demuxer -> ist_index:0 type:video next_dts:1125000 next_dts_time:1.125 
next_pts:1041667 next_pts_time:1.04167 pkt_pts:1127250 pkt_pts_time:12.525 
pkt_dts:1127250 pkt_dts_time:12.525 off:-11400000 off_time:-11.4
demuxer+ffmpeg -> ist_index:0 type:video pkt_pts:101250 pkt_pts_time:1.125 
pkt_dts:101250 pkt_dts_time:1.125 off:-11400000 off_time:-11.4
decoder -> ist_index:0 type:video frame_pts:93750 frame_pts_time:1.04167 
best_effort_ts:93750 best_effort_ts_time:1.04167 keyframe:0 frame_type:2 
time_base:1/90000
filter -> pts:25 pts_time:1.04167 exact:25.000008 time_base:1/24
encoder <- type:video frame_pts:25 frame_pts_time:1.04167 time_base:1/24
encoder -> type:video pkt_pts:25 pkt_pts_time:1.04167 pkt_dts:25 
pkt_dts_time:1.04167
    Last message repeated 1 times
muxer <- type:video pkt_pts:25 pkt_pts_time:1.04167 pkt_dts:25 
pkt_dts_time:1.04167 size:528
demuxer -> ist_index:0 type:video next_dts:1166667 next_dts_time:1.16667 
next_pts:1083334 next_pts_time:1.08333 pkt_pts:1131000 pkt_pts_time:12.5667 
pkt_dts:1131000 pkt_dts_time:12.5667 off:-11400000 off_time:-11.4
demuxer+ffmpeg -> ist_index:0 type:video pkt_pts:105000 pkt_pts_time:1.16667 
pkt_dts:105000 pkt_dts_time:1.16667 off:-11400000 off_time:-11.4
decoder -> ist_index:0 type:video frame_pts:97500 frame_pts_time:1.08333 
best_effort_ts:97500 best_effort_ts_time:1.08333 keyframe:0 frame_type:2 
time_base:1/90000
filter -> pts:26 pts_time:1.08333 exact:26.000008 time_base:1/24
encoder <- type:video frame_pts:26 frame_pts_time:1.08333 time_base:1/24
encoder -> type:video pkt_pts:26 pkt_pts_time:1.08333 pkt_dts:26 
pkt_dts_time:1.08333
    Last message repeated 1 times
muxer <- type:video pkt_pts:26 pkt_pts_time:1.08333 pkt_dts:26 
pkt_dts_time:1.08333 size:528
demuxer -> ist_index:1 type:audio next_dts:1136000 next_dts_time:1.136 
next_pts:1136000 next_pts_time:1.136 pkt_pts:1128240 pkt_pts_time:12.536 
pkt_dts:1128240 pkt_dts_time:12.536 off:-11400000 off_time:-11.4
demuxer+ffmpeg -> ist_index:1 type:audio pkt_pts:102240 pkt_pts_time:1.136 
pkt_dts:102240 pkt_dts_time:1.136 off:-11400000 off_time:-11.4
demuxer -> ist_index:1 type:audio next_dts:1168000 next_dts_time:1.168 
next_pts:1168000 next_pts_time:1.168 pkt_pts:1131120 pkt_pts_time:12.568 
pkt_dts:1131120 pkt_dts_time:12.568 off:-11400000 off_time:-11.4
demuxer+ffmpeg -> ist_index:1 type:audio pkt_pts:105120 pkt_pts_time:1.168 
pkt_dts:105120 pkt_dts_time:1.168 off:-11400000 off_time:-11.4
demuxer -> ist_index:1 type:audio next_dts:1200000 next_dts_time:1.2 
next_pts:1200000 next_pts_time:1.2 pkt_pts:1134000 pkt_pts_time:12.6 
pkt_dts:1134000 pkt_dts_time:12.6 off:-11400000 off_time:-11.4
demuxer+ffmpeg -> ist_index:1 type:audio pkt_pts:108000 pkt_pts_time:1.2 
pkt_dts:108000 pkt_dts_time:1.2 off:-11400000 off_time:-11.4
demuxer -> ist_index:0 type:video next_dts:1208334 next_dts_time:1.20833 
next_pts:1125000 next_pts_time:1.125 pkt_pts:1134750 pkt_pts_time:12.6083 
pkt_dts:1134750 pkt_dts_time:12.6083 off:-11400000 off_time:-11.4
demuxer+ffmpeg -> ist_index:0 type:video pkt_pts:108750 pkt_pts_time:1.20833 
pkt_dts:108750 pkt_dts_time:1.20833 off:-11400000 off_time:-11.4
decoder -> ist_index:0 type:video frame_pts:101250 frame_pts_time:1.125 
best_effort_ts:101250 best_effort_ts_time:1.125 keyframe:0 frame_type:2 
time_base:1/90000
filter -> pts:27 pts_time:1.125 exact:27.000008 time_base:1/24
encoder <- type:video frame_pts:27 frame_pts_time:1.125 time_base:1/24
encoder -> type:video pkt_pts:27 pkt_pts_time:1.125 pkt_dts:27 
pkt_dts_time:1.125
    Last message repeated 1 times
muxer <- type:video pkt_pts:27 pkt_pts_time:1.125 pkt_dts:27 pkt_dts_time:1.125 
size:528
demuxer -> ist_index:1 type:audio next_dts:1232000 next_dts_time:1.232 
next_pts:1232000 next_pts_time:1.232 pkt_pts:1136880 pkt_pts_time:12.632 
pkt_dts:1136880 pkt_dts_time:12.632 off:-11400000 off_time:-11.4
demuxer+ffmpeg -> ist_index:1 type:audio pkt_pts:110880 pkt_pts_time:1.232 
pkt_dts:110880 pkt_dts_time:1.232 off:-11400000 off_time:-11.4
demuxer -> ist_index:1 type:audio next_dts:1264000 next_dts_time:1.264 
next_pts:1264000 next_pts_time:1.264 pkt_pts:1139760 pkt_pts_time:12.664 
pkt_dts:1139760 pkt_dts_time:12.664 off:-11400000 off_time:-11.4
demuxer+ffmpeg -> ist_index:1 type:audio pkt_pts:113760 pkt_pts_time:1.264 
pkt_dts:113760 pkt_dts_time:1.264 off:-11400000 off_time:-11.4
demuxer -> ist_index:1 type:audio next_dts:1296000 next_dts_time:1.296 
next_pts:1296000 next_pts_time:1.296 pkt_pts:1142640 pkt_pts_time:12.696 
pkt_dts:1142640 pkt_dts_time:12.696 off:-11400000 off_time:-11.4
demuxer+ffmpeg -> ist_index:1 type:audio pkt_pts:116640 pkt_pts_time:1.296 
pkt_dts:116640 pkt_dts_time:1.296 off:-11400000 off_time:-11.4
demuxer -> ist_index:0 type:video next_dts:1250000 next_dts_time:1.25 
next_pts:1166667 next_pts_time:1.16667 pkt_pts:1138500 pkt_pts_time:12.65 
pkt_dts:1138500 pkt_dts_time:12.65 off:-11400000 off_time:-11.4
demuxer+ffmpeg -> ist_index:0 type:video pkt_pts:112500 pkt_pts_time:1.25 
pkt_dts:112500 pkt_dts_time:1.25 off:-11400000 off_time:-11.4
decoder -> ist_index:0 type:video frame_pts:105000 frame_pts_time:1.16667 
best_effort_ts:105000 best_effort_ts_time:1.16667 keyframe:0 frame_type:2 
time_base:1/90000
filter -> pts:28 pts_time:1.16667 exact:28.000008 time_base:1/24
encoder <- type:video frame_pts:28 frame_pts_time:1.16667 time_base:1/24
encoder -> type:video pkt_pts:28 pkt_pts_time:1.16667 pkt_dts:28 
pkt_dts_time:1.16667
    Last message repeated 1 times
muxer <- type:video pkt_pts:28 pkt_pts_time:1.16667 pkt_dts:28 
pkt_dts_time:1.16667 size:528
demuxer -> ist_index:0 type:video next_dts:1291667 next_dts_time:1.29167 
next_pts:1208334 next_pts_time:1.20833 pkt_pts:1142250 pkt_pts_time:12.6917 
pkt_dts:1142250 pkt_dts_time:12.6917 off:-11400000 off_time:-11.4
demuxer+ffmpeg -> ist_index:0 type:video pkt_pts:116250 pkt_pts_time:1.29167 
pkt_dts:116250 pkt_dts_time:1.29167 off:-11400000 off_time:-11.4
decoder -> ist_index:0 type:video frame_pts:108750 frame_pts_time:1.20833 
best_effort_ts:108750 best_effort_ts_time:1.20833 keyframe:0 frame_type:2 
time_base:1/90000
filter -> pts:29 pts_time:1.20833 exact:29.000008 time_base:1/24
encoder <- type:video frame_pts:29 frame_pts_time:1.20833 time_base:1/24
encoder -> type:video pkt_pts:29 pkt_pts_time:1.20833 pkt_dts:29 
pkt_dts_time:1.20833
    Last message repeated 1 times
muxer <- type:video pkt_pts:29 pkt_pts_time:1.20833 pkt_dts:29 
pkt_dts_time:1.20833 size:528
demuxer -> ist_index:0 type:video next_dts:1333334 next_dts_time:1.33333 
next_pts:1250000 next_pts_time:1.25 pkt_pts:1146000 pkt_pts_time:12.7333 
pkt_dts:1146000 pkt_dts_time:12.7333 off:-11400000 off_time:-11.4
demuxer+ffmpeg -> ist_index:0 type:video pkt_pts:120000 pkt_pts_time:1.33333 
pkt_dts:120000 pkt_dts_time:1.33333 off:-11400000 off_time:-11.4
decoder -> ist_index:0 type:video frame_pts:112500 frame_pts_time:1.25 
best_effort_ts:112500 best_effort_ts_time:1.25 keyframe:0 frame_type:2 
time_base:1/90000
filter -> pts:30 pts_time:1.25 exact:30.000008 time_base:1/24
encoder <- type:video frame_pts:30 frame_pts_time:1.25 time_base:1/24
encoder -> type:video pkt_pts:30 pkt_pts_time:1.25 pkt_dts:30 pkt_dts_time:1.25
    Last message repeated 1 times
muxer <- type:video pkt_pts:30 pkt_pts_time:1.25 pkt_dts:30 pkt_dts_time:1.25 
size:528
demuxer -> ist_index:1 type:audio next_dts:1328000 next_dts_time:1.328 
next_pts:1328000 next_pts_time:1.328 pkt_pts:1145520 pkt_pts_time:12.728 
pkt_dts:1145520 pkt_dts_time:12.728 off:-11400000 off_time:-11.4
demuxer+ffmpeg -> ist_index:1 type:audio pkt_pts:119520 pkt_pts_time:1.328 
pkt_dts:119520 pkt_dts_time:1.328 off:-11400000 off_time:-11.4
demuxer -> ist_index:1 type:audio next_dts:1360000 next_dts_time:1.36 
next_pts:1360000 next_pts_time:1.36 pkt_pts:1148400 pkt_pts_time:12.76 
pkt_dts:1148400 pkt_dts_time:12.76 off:-11400000 off_time:-11.4
demuxer+ffmpeg -> ist_index:1 type:audio pkt_pts:122400 pkt_pts_time:1.36 
pkt_dts:122400 pkt_dts_time:1.36 off:-11400000 off_time:-11.4
demuxer -> ist_index:1 type:audio next_dts:1392000 next_dts_time:1.392 
next_pts:1392000 next_pts_time:1.392 pkt_pts:1151280 pkt_pts_time:12.792 
pkt_dts:1151280 pkt_dts_time:12.792 off:-11400000 off_time:-11.4
demuxer+ffmpeg -> ist_index:1 type:audio pkt_pts:125280 pkt_pts_time:1.392 
pkt_dts:125280 pkt_dts_time:1.392 off:-11400000 off_time:-11.4
demuxer -> ist_index:0 type:video next_dts:1375000 next_dts_time:1.375 
next_pts:1291667 next_pts_time:1.29167 pkt_pts:1149750 pkt_pts_time:12.775 
pkt_dts:1149750 pkt_dts_time:12.775 off:-11400000 off_time:-11.4
demuxer+ffmpeg -> ist_index:0 type:video pkt_pts:123750 pkt_pts_time:1.375 
pkt_dts:123750 pkt_dts_time:1.375 off:-11400000 off_time:-11.4
decoder -> ist_index:0 type:video frame_pts:116250 frame_pts_time:1.29167 
best_effort_ts:116250 best_effort_ts_time:1.29167 keyframe:0 frame_type:2 
time_base:1/90000
filter -> pts:31 pts_time:1.29167 exact:31.000008 time_base:1/24
encoder <- type:video frame_pts:31 frame_pts_time:1.29167 time_base:1/24
encoder -> type:video pkt_pts:31 pkt_pts_time:1.29167 pkt_dts:31 
pkt_dts_time:1.29167
    Last message repeated 1 times
muxer <- type:video pkt_pts:31 pkt_pts_time:1.29167 pkt_dts:31 
pkt_dts_time:1.29167 size:528
demuxer -> ist_index:0 type:video next_dts:1416667 next_dts_time:1.41667 
next_pts:1333334 next_pts_time:1.33333 pkt_pts:1153500 pkt_pts_time:12.8167 
pkt_dts:1153500 pkt_dts_time:12.8167 off:-11400000 off_time:-11.4
demuxer+ffmpeg -> ist_index:0 type:video pkt_pts:127500 pkt_pts_time:1.41667 
pkt_dts:127500 pkt_dts_time:1.41667 off:-11400000 off_time:-11.4
decoder -> ist_index:0 type:video frame_pts:120000 frame_pts_time:1.33333 
best_effort_ts:120000 best_effort_ts_time:1.33333 keyframe:0 frame_type:2 
time_base:1/90000
filter -> pts:32 pts_time:1.33333 exact:32.000008 time_base:1/24
encoder <- type:video frame_pts:32 frame_pts_time:1.33333 time_base:1/24
encoder -> type:video pkt_pts:32 pkt_pts_time:1.33333 pkt_dts:32 
pkt_dts_time:1.33333
    Last message repeated 1 times
muxer <- type:video pkt_pts:32 pkt_pts_time:1.33333 pkt_dts:32 
pkt_dts_time:1.33333 size:528
demuxer -> ist_index:1 type:audio next_dts:1424000 next_dts_time:1.424 
next_pts:1424000 next_pts_time:1.424 pkt_pts:1154160 pkt_pts_time:12.824 
pkt_dts:1154160 pkt_dts_time:12.824 off:-11400000 off_time:-11.4
demuxer+ffmpeg -> ist_index:1 type:audio pkt_pts:128160 pkt_pts_time:1.424 
pkt_dts:128160 pkt_dts_time:1.424 off:-11400000 off_time:-11.4
demuxer -> ist_index:1 type:audio next_dts:1456000 next_dts_time:1.456 
next_pts:1456000 next_pts_time:1.456 pkt_pts:1157040 pkt_pts_time:12.856 
pkt_dts:1157040 pkt_dts_time:12.856 off:-11400000 off_time:-11.4
demuxer+ffmpeg -> ist_index:1 type:audio pkt_pts:131040 pkt_pts_time:1.456 
pkt_dts:131040 pkt_dts_time:1.456 off:-11400000 off_time:-11.4
demuxer -> ist_index:1 type:audio next_dts:1488000 next_dts_time:1.488 
next_pts:1488000 next_pts_time:1.488 pkt_pts:1159920 pkt_pts_time:12.888 
pkt_dts:1159920 pkt_dts_time:12.888 off:-11400000 off_time:-11.4
demuxer+ffmpeg -> ist_index:1 type:audio pkt_pts:133920 pkt_pts_time:1.488 
pkt_dts:133920 pkt_dts_time:1.488 off:-11400000 off_time:-11.4
demuxer -> ist_index:0 type:video next_dts:1458334 next_dts_time:1.45833 
next_pts:1375000 next_pts_time:1.375 pkt_pts:1157250 pkt_pts_time:12.8583 
pkt_dts:1157250 pkt_dts_time:12.8583 off:-11400000 off_time:-11.4
demuxer+ffmpeg -> ist_index:0 type:video pkt_pts:131250 pkt_pts_time:1.45833 
pkt_dts:131250 pkt_dts_time:1.45833 off:-11400000 off_time:-11.4
decoder -> ist_index:0 type:video frame_pts:123750 frame_pts_time:1.375 
best_effort_ts:123750 best_effort_ts_time:1.375 keyframe:0 frame_type:2 
time_base:1/90000
filter -> pts:33 pts_time:1.375 exact:33.000008 time_base:1/24
encoder <- type:video frame_pts:33 frame_pts_time:1.375 time_base:1/24
encoder -> type:video pkt_pts:33 pkt_pts_time:1.375 pkt_dts:33 
pkt_dts_time:1.375
    Last message repeated 1 times
muxer <- type:video pkt_pts:33 pkt_pts_time:1.375 pkt_dts:33 pkt_dts_time:1.375 
size:528
demuxer -> ist_index:0 type:video next_dts:1500000 next_dts_time:1.5 
next_pts:1416667 next_pts_time:1.41667 pkt_pts:1161000 pkt_pts_time:12.9 
pkt_dts:1161000 pkt_dts_time:12.9 off:-11400000 off_time:-11.4
demuxer+ffmpeg -> ist_index:0 type:video pkt_pts:135000 pkt_pts_time:1.5 
pkt_dts:135000 pkt_dts_time:1.5 off:-11400000 off_time:-11.4
decoder -> ist_index:0 type:video frame_pts:127500 frame_pts_time:1.41667 
best_effort_ts:127500 best_effort_ts_time:1.41667 keyframe:0 frame_type:2 
time_base:1/90000
decoder -> ist_index:0 type:video frame_pts:131250 frame_pts_time:1.45833 
best_effort_ts:131250 best_effort_ts_time:1.45833 keyframe:0 frame_type:2 
time_base:1/90000
frame=   24 fps=0.0 q=-0.0 Lsize=N/A time=00:00:01.41 bitrate=N/A speed=4.35x   
 
video:12kB audio:188kB subtitle:0kB other streams:0kB global headers:0kB muxing 
overhead: unknown




I use ffprobe to get video packet information, including pts/dts:
/usr/local/bin/ffprobe -show_packets -select_streams v hanma.ts


And video key packet information is shown as follows:


[PACKET]
codec_type=video
stream_index=0
pts=126000
pts_time=1.400000
dts=126000
dts_time=1.400000
duration=3750
duration_time=0.041667
convergence_duration=N/A
convergence_duration_time=N/A
size=84131
pos=564
flags=K
[/PACKET]


[PACKET]
codec_type=video
stream_index=0
pts=1063500
pts_time=11.816667
dts=1063500
dts_time=11.816667
duration=3750
duration_time=0.041667
convergence_duration=N/A
convergence_duration_time=N/A
size=123799
pos=14651968
flags=K
[/PACKET]


[PACKET]
codec_type=video
stream_index=0
pts=2001000
pts_time=22.233333
dts=2001000
dts_time=22.233333
duration=3750
duration_time=0.041667
convergence_duration=N/A
convergence_duration_time=N/A
size=98193
pos=29047128
flags=K
[/PACKET]






I found 1st video packet output by ffmpeg is not video key packet by comparing 
pts/dts


demuxer -> ist_index:0 type:video next_dts:NOPTS next_dts_time:NOPTS 
next_pts:NOPTS next_pts_time:NOPTS pkt_pts:1026000 pkt_pts_time:11.4 
pkt_dts:1026000 pkt_dts_time:11.4 off:-11400000 off_time:-11.4
demuxer+ffmpeg -> ist_index:0 type:video pkt_pts:0 pkt_pts_time:0 pkt_dts:0 
pkt_dts_time:0 off:-11400000 off_time:-11.4
demuxer -> ist_index:0 type:video next_dts:41667 next_dts_time:0.041667 
next_pts:0 next_pts_time:0 pkt_pts:1029750 pkt_pts_time:11.4417 pkt_dts:1029750 
pkt_dts_time:11.4417 off:-11400000 off_time:-11.4
demuxer+ffmpeg -> ist_index:0 type:video pkt_pts:3750 pkt_pts_time:0.0416667 
pkt_dts:3750 pkt_dts_time:0.0416667 off:-11400000 off_time:-11.4
[h264 @ 0x17da880] Missing reference picture, default is 0
[h264 @ 0x17da880] decode_slice_header error
demuxer -> ist_index:0 type:video next_dts:83334 next_dts_time:0.083334 
next_pts:0 next_pts_time:0 pkt_pts:1033500 pkt_pts_time:11.4833 pkt_dts:1033500 
pkt_dts_time:11.4833 off:-11400000 off_time:-11.4
demuxer+ffmpeg -> ist_index:0 type:video pkt_pts:7500 pkt_pts_time:0.0833333 
pkt_dts:7500 pkt_dts_time:0.0833333 off:-11400000 off_time:-11.4




But according to avformat_seek_file()'s description:
http://ffmpeg.org/doxygen/3.4/group__lavf__decoding.html#ga3b40fc8d2fda6992ae6ea2567d71ba30
1st video packet should be key packet after calling avformat_seek_file().


But for hanma.ts, it's not the case.




The test clip can be downloaded from:
https://pan.baidu.com/s/1bqxMDHX


Is it a bug in ffmpeg ts demuxer?




Thanks!


Regard


Andrew




 
_______________________________________________
ffmpeg-user mailing list
ffmpeg-user@ffmpeg.org
http://ffmpeg.org/mailman/listinfo/ffmpeg-user

To unsubscribe, visit link above, or email
ffmpeg-user-requ...@ffmpeg.org with subject "unsubscribe".

Reply via email to