Hi,

my question regarding the problem is basicly the same as in this mail https://ffmpeg.org/pipermail/ffmpeg-user/2017-March/035541.html


but there was no solution yet.

We need to convert MXF OP-1b to DNxHD so that our Avid Media Composer will be able to handle the files.
Media info and console output below.

The problem seems to be this one:

[mxf @ 00000254ee40a480] error getting stream index 38594201777 bitrate=  -0.0kbits/s speed=N/A
    Last message repeated 47 times

But I have no idea how to fix it.

I would be SUPER nice if you could help me!

Regards
Hannes

Media info:

General
Complete name                            : F:\Kaffee_Sound\card\CONTENTS\AVCLIP\055EX4DX.MXF
Format                                   : MXF
Format version                           : 1.3
Format profile                           : OP-1b
Format settings                          : Closed / Complete
File size                                : 120 MiB
Duration                                 : 33 s 33 ms
Overall bit rate mode                    : Variable
Overall bit rate                         : 30.4 Mb/s
Package name                             : 055EX4DX
Encoded date                             : 2018-02-16 15:08:40.000
Writing application                      : Panasonic P2 3.0

Video
ID                                       : 2
Format                                   : AVC
Format/Info                              : Advanced Video Codec
Format profile                           : High 4:2:2@L4
Format settings                          : CABAC / 2 Ref Frames
Format settings, CABAC                   : Yes
Format settings, RefFrames               : 2 frames
Format settings, GOP                     : M=3, N=24
Format settings, wrapping mode           : Frame
Codec ID                                 : 0D01030102106001-0401020201316001
Duration                                 : 33 s 33 ms
Bit rate mode                            : Variable
Bit rate                                 : 25.0 Mb/s
Maximum bit rate                         : 37.5 Mb/s
Width                                    : 1 920 pixels
Height                                   : 1 080 pixels
Display aspect ratio                     : 16:9
Frame rate                               : 23.976 (24000/1001) FPS
Standard                                 : Component
Color space                              : YUV
Chroma subsampling                       : 4:2:2
Bit depth                                : 10 bits
Scan type                                : Progressive
Bits/(Pixel*Frame)                       : 0.503
Stream size                              : 98.4 MiB (82%)
Color range                              : Limited
Color primaries                          : BT.709
Transfer characteristics                 : BT.709
Matrix coefficients                      : BT.709
BitRate_Maximum_Original                 : 37499904

Audio #1
ID                                       : 3
Format                                   : PCM
Format settings                          : Little
Format settings, Endianness              : Little
Codec ID                                 : 0D01030102060B00
Duration                                 : 33 s 33 ms
Bit rate mode                            : Constant
Bit rate                                 : 1 152 kb/s
Channel(s)                               : 1 channel
Sampling rate                            : 48.0 kHz
Bit depth                                : 24 bits
Stream size                              : 4.54 MiB (4%)
Locked                                   : Yes

Audio #2
ID                                       : 4
Format                                   : PCM
Codec ID                                 : 0D01030102060B00
Duration                                 : 33 s 33 ms
Bit rate                                 : 1 152 kb/s
Channel(s)                               : 1 channel
Sampling rate                            : 48.0 kHz
Bit depth                                : 24 bits
Stream size                              : 4.54 MiB (4%)
Locked                                   : Yes

Audio #3
ID                                       : 5
Format                                   : PCM
Codec ID                                 : 0D01030102060B00
Duration                                 : 33 s 33 ms
Bit rate                                 : 1 152 kb/s
Channel(s)                               : 1 channel
Sampling rate                            : 48.0 kHz
Bit depth                                : 24 bits
Stream size                              : 4.54 MiB (4%)
Locked                                   : Yes

Audio #4
ID                                       : 7
Format                                   : PCM
Codec ID                                 : 0D01030102060B00
Duration                                 : 33 s 33 ms
Bit rate                                 : 1 152 kb/s
Channel(s)                               : 1 channel
Sampling rate                            : 48.0 kHz
Bit depth                                : 24 bits
Stream size                              : 4.54 MiB (4%)
Locked                                   : Yes

Other #1
ID                                       : 1-Material
Type                                     : Time code
Format                                   : MXF TC
Time code of first frame                 : 00:16:57:00
Time code settings                       : Material Package
Time code, striped                       : Yes

Other #2
ID                                       : 1-Source
Type                                     : Time code
Format                                   : MXF TC
Time code of first frame                 : 00:16:57:00
Time code settings                       : Source Package
Time code, striped                       : Yes



Console ouput:


ffmpeg -i 055EX4DX.mxf -c:v dnxhd -b:v 36M -framerate 24000/1001 -s 1920x1080 -pix_fmt  yuv422p -c:a pcm_s24le output.mov ffmpeg version N-90077-g56f77b0f67 Copyright (c) 2000-2018 the FFmpeg developers
  built with gcc 7.2.0 (GCC)
  configuration: --enable-gpl --enable-version3 --enable-sdl2 --enable-bzlib --enable-fontconfig --enable-gnutls --enable-iconv --enable-libass --enable-libbluray --enable-libfreetype --enable-libmp3lame --enable-libopencore-amrnb --enable-libopencore-amrwb --enable-libopenjpeg --enable-libopus --enable-libshine --enable-libsnappy --enable-libsoxr --enable-libtheora --enable-libtwolame --enable-libvpx --enable-libwavpack --enable-libwebp --enable-libx264 --enable-libx265 --enable-libxml2 --enable-libzimg --enable-lzma --enable-zlib --enable-gmp --enable-libvidstab --enable-libvorbis --enable-libvo-amrwbenc --enable-libmysofa --enable-libspeex --enable-libxvid --enable-libmfx --enable-amf --enable-cuda --enable-cuvid --enable-d3d11va --enable-nvenc --enable-dxva2 --enable-avisynth
  libavutil      56.  7.101 / 56.  7.101
  libavcodec     58. 11.101 / 58. 11.101
  libavformat    58.  9.100 / 58.  9.100
  libavdevice    58.  1.100 / 58.  1.100
  libavfilter     7. 12.100 /  7. 12.100
  libswscale      5.  0.101 /  5.  0.101
  libswresample   3.  0.101 /  3.  0.101
  libpostproc    55.  0.100 / 55.  0.100
[mxf @ 00000254ee40a480] material track 3: no corresponding source track found [mxf @ 00000254ee40a480] material track 4: no corresponding source track found
[mxf @ 00000254ee40a480] could not resolve material track strong ref
[mxf @ 00000254ee40a480] IndexSID 101 starts at EditUnit 48 - seeking may not work as expected
    Last message repeated 15 times
[mxf @ 00000254ee40a480] got 102 index tables - only the first one (IndexSID 101) will be used
Guessed Channel Layout for Input Stream #0.3 : mono
Guessed Channel Layout for Input Stream #0.4 : mono
Guessed Channel Layout for Input Stream #0.5 : mono
Input #0, mxf, from '055EX4DX.mxf':
  Metadata:
    uid             : eb007554-c5a5-4952-90bb-37c097bd0036
    generation_uid  : 8fea6b1e-cfee-43d1-8aea-506ff61c2062
    company_name    : Panasonic
    product_name    : P2
    product_version : 3.0
    product_uid     : 060e2b34-0401-0108-0e0e-010101010001
    modification_date: 2018-02-16T15:08:40.000000Z
    material_package_umid: 0x060A2B340101010501010D43130000009CB5FB9B658105EB0080458219581001
    material_package_name: 055EX4DX
    timecode        : 00:16:57:00
  Duration: 00:00:33.03, start: 0.000000, bitrate: 30350 kb/s
    Stream #0:0: Video: h264 (High 4:2:2), yuv422p10le(tv, bt709, progressive), 1920x1080 [SAR 1:1 DAR 16:9], 23.98 fps, 23.98 tbr, 23.98 tbn, 47.95 tbc
    Metadata:
      file_package_umid: 0x060A2B340101010501010643130000009CB5FB9B658105EC0080458219581001
    Stream #0:1: Data: none
    Metadata:
      file_package_umid: 0x060A2B340101010501010C43130000009CB5FB9B658105EC0080458219581001
      data_type       : data
    Stream #0:2: Data: none
    Metadata:
      file_package_umid: 0x060A2B340101010501010843130000009CB5FB9B658105EC0080458219581001
      data_type       : audio
    Stream #0:3: Audio: pcm_s24le, 48000 Hz, mono, s32 (24 bit), 1152 kb/s
    Metadata:
      file_package_umid: 0x060A2B340101010501010843130000009CB5FB9B658105ED0080458219581001
    Stream #0:4: Audio: pcm_s24le, 48000 Hz, mono, s32 (24 bit), 1152 kb/s
    Metadata:
      file_package_umid: 0x060A2B340101010501010843130000009CB5FB9B658105EE0080458219581001
    Stream #0:5: Audio: pcm_s24le, 48000 Hz, mono, s32 (24 bit), 1152 kb/s
    Metadata:
      file_package_umid: 0x060A2B340101010501010843130000009CB5FB9B658105EF0080458219581001
File 'output.mov' already exists. Overwrite ? [y/N] y
Stream mapping:
  Stream #0:0 -> #0:0 (h264 (native) -> dnxhd (native))
  Stream #0:3 -> #0:1 (pcm_s24le (native) -> pcm_s24le (native))
Press [q] to stop, [?] for help
[mxf @ 00000254ee40a480] error getting stream index 38594201777 bitrate=  -0.0kbits/s speed=N/A
    Last message repeated 47 times
Output #0, mov, to 'output.mov':
  Metadata:
    uid             : eb007554-c5a5-4952-90bb-37c097bd0036
    generation_uid  : 8fea6b1e-cfee-43d1-8aea-506ff61c2062
    company_name    : Panasonic
    product_name    : P2
    product_version : 3.0
    product_uid     : 060e2b34-0401-0108-0e0e-010101010001
    modification_date: 2018-02-16T15:08:40.000000Z
    material_package_umid: 0x060A2B340101010501010D43130000009CB5FB9B658105EB0080458219581001
    material_package_name: 055EX4DX
    timecode        : 00:16:57:00
    encoder         : Lavf58.9.100
    Stream #0:0: Video: dnxhd (DNXHD) (AVdn / 0x6E645641), yuv422p(progressive), 1920x1080 [SAR 1:1 DAR 16:9], q=2-1024, 36000 kb/s, 0.04 fps, 24k tbn, 23.98 tbc
    Metadata:
      file_package_umid: 0x060A2B340101010501010643130000009CB5FB9B658105EC0080458219581001
      encoder         : Lavc58.11.101 dnxhd
    Stream #0:1: Audio: pcm_s24le (in24 / 0x34326E69), 48000 Hz, mono, s32 (24 bit), 1152 kb/s
    Metadata:
      file_package_umid: 0x060A2B340101010501010843130000009CB5FB9B658105ED0080458219581001
      encoder         : Lavc58.11.101 pcm_s24le
[mxf @ 00000254ee40a480] error getting stream index 385942017trate=16498.6kbits/s speed=1.56x
    Last message repeated 47 times
[mxf @ 00000254ee40a480] error getting stream index 385942017trate=12308.5kbits/s speed= 2.6x
    Last message repeated 47 times
[mxf @ 00000254ee40a480] error getting stream index 385942017trate=10999.1kbits/s speed=3.34x
    Last message repeated 47 times
[mxf @ 00000254ee40a480] error getting stream index 385942017trate=11522.8kbits/s speed=3.67x
    Last message repeated 47 times
[mxf @ 00000254ee40a480] error getting stream index 385942017trate=10999.1kbits/s speed=4.11x
    Last message repeated 47 times
[mxf @ 00000254ee40a480] error getting stream index 385942017trate=10518.9kbits/s speed=4.44x
    Last message repeated 47 times
[mxf @ 00000254ee40a480] error getting stream index 385942017trate=10999.1kbits/s speed=4.52x
    Last message repeated 47 times
[mxf @ 00000254ee40a480] error getting stream index 385942017trate=10737.2kbits/s speed=4.77x
    Last message repeated 47 times
[mxf @ 00000254ee40a480] error getting stream index 385942017trate=10475.3kbits/s speed=4.98x
    Last message repeated 47 times
[mxf @ 00000254ee40a480] error getting stream index 385942017trate=10344.3kbits/s speed=5.16x
    Last message repeated 47 times
[mxf @ 00000254ee40a480] error getting stream index 385942017trate=10713.4kbits/s speed=5.14x
    Last message repeated 47 times
[mxf @ 00000254ee40a480] error getting stream index 385942017trate=10562.6kbits/s speed=5.29x
    Last message repeated 47 times
[mxf @ 00000254ee40a480] error getting stream index 385942017trate=10475.3kbits/s speed=5.42x
    Last message repeated 47 times
[mxf @ 00000254ee40a480] error getting stream index 385942017trate=10363.1kbits/s speed=5.55x
    Last message repeated 47 times
[mxf @ 00000254ee40a480] error getting stream index 385942017trate=10283.2kbits/s speed=5.66x
    Last message repeated 47 times
[mxf @ 00000254ee40a480] error getting stream index 385942017trate=10213.4kbits/s speed=5.76x
    Last message repeated 23 times
frame=  792 fps= 35 q=6.0 Lsize=  164313kB time=00:02:12.13 bitrate=10187.2kbits/s speed=5.85x video:145728kB audio:18581kB subtitle:0kB other streams:0kB global headers:0kB muxing overhead: 0.002182%*
*
_______________________________________________
ffmpeg-user mailing list
ffmpeg-user@ffmpeg.org
http://ffmpeg.org/mailman/listinfo/ffmpeg-user

To unsubscribe, visit link above, or email
ffmpeg-user-requ...@ffmpeg.org with subject "unsubscribe".

Reply via email to