Greetings!

I am attempting to use FFMPEG to record a multi-program transport stream
(MPTS) which arrives as UDP. There are four Programs in the MPTS. Each
program consists of a video (h264) and seven or eight audios (mp2). And
each Program has a defined set of PIDs assigned to that Program. So, for
example, Program 1 has PID 100 (0x64) for video and PIDs 101-107
(0x65-0x6B) for audio. Among the four Programs there are 34 streams (0-33).

I need to record this MPTS as a .TS file while maintaining the original PID
numbers. I am attempting to force the PID numbering using 34 "-streamid"
parameters. For example:

-streamid 0:0x64 -streamid 1:0x65 -streamid 2:0x66

The command line runs but the resulting file renumbers the PIDs
incorrectly. And this renumbering is different for each run. It is
different each time, it appears, because FFMPEG associates the stream
numbers and PID numbers differently for each run. The input UDP stream ran
continuously during these two tests; it was not stopped or paused.

I have attached a text file showing the command line and the console output
for two runs. Notice in the first attempt that Program 1 is associated with
streams 18-19-23-24-21-20-25-22. And in the second try Program 1 is
associated with streams 33-19-29-30-27-26-31-28.

This variability would seem to make consistent PID numbering impossible
using "streamid".

Is there another way?

-- 

*David Stephens*

*AOL/Verizon Digital Media*

*Dulles, VA571-376-2634*
First try:


Command line:

sudo ffmpeg -y -i udp://232.1.1.1:5003?multicast=1 -map 0:v -map 0:a -streamid 
0:0x64 -streamid 1:0x65 -streamid 2:0x66 -streamid 3:0x67 -streamid 4:0x68 
-streamid 5:0x69 -streamid 6:0x6A -streamid 7:0x6B -streamid 8:0xC8 -streamid 
9:0xC9 -streamid 10:0xCA -streamid 11:0xCB -streamid 12:0xCC -streamid 13:0xCD 
-streamid 14:0xCE -streamid 15:0xCF -streamid 16:0x12C -streamid 17:0x12D 
-streamid 18:0x12E -streamid 19:0x12F -streamid 20:0x130 -streamid 21:0x131 
-streamid 22:0x132 -streamid 23:0x133 -streamid 24:0x134 -streamid 25:0x190 
-streamid 26:0x191 -streamid 27:0x192 -streamid 28:0x193 -streamid 29:0x194 
-streamid 30:0x195 -streamid 31:0x196 -streamid 32:0x197 -streamid 33:0x198 -c 
copy /home/slicer/testrec.ts

Console output:

Input #0, mpegts, from 'udp://232.1.1.1:5003?multicast=1':
  Duration: N/A, start: 95349.723878, bitrate: N/A
  Program 1 
    Metadata:
      service_name    : InCar Cam 1
      service_provider: IMSP
    Stream #0:18[0x64]: Video: h264 (Main) ([27][0][0][0] / 0x001B), 
yuv420p(tv, bt709, top first), 1920x1080 [SAR 1:1 DAR 16:9], 29.97 fps, 59.94 
tbr, 90k tbn, 59.94 tbc
    Stream #0:19[0x65](eng): Audio: mp2 ([3][0][0][0] / 0x0003), 48000 Hz, 
stereo, s16p, 64 kb/s
    Stream #0:23[0x66](eng): Audio: mp2 ([3][0][0][0] / 0x0003), 48000 Hz, 
mono, s16p, 64 kb/s
    Stream #0:24[0x67](eng): Audio: mp2 ([3][0][0][0] / 0x0003), 48000 Hz, 
mono, s16p, 64 kb/s
    Stream #0:21[0x68](eng): Audio: mp2 ([3][0][0][0] / 0x0003), 48000 Hz, 
mono, s16p, 64 kb/s
    Stream #0:20[0x69](eng): Audio: mp2 ([3][0][0][0] / 0x0003), 48000 Hz, 
mono, s16p, 64 kb/s
    Stream #0:25[0x6a](eng): Audio: mp2 ([3][0][0][0] / 0x0003), 48000 Hz, 
mono, s16p, 64 kb/s
    Stream #0:22[0x6b](eng): Audio: mp2 ([3][0][0][0] / 0x0003), 48000 Hz, 
mono, s16p, 64 kb/s
  Program 2 
    Metadata:
      service_name    : InCar Cam 2
      service_provider: IMSP
    Stream #0:10[0xc8]: Video: h264 (Main) ([27][0][0][0] / 0x001B), 
yuv420p(tv, bt709, top first), 1920x1080 [SAR 1:1 DAR 16:9], 29.97 fps, 59.94 
tbr, 90k tbn, 59.94 tbc
    Stream #0:11[0xc9](eng): Audio: mp2 ([3][0][0][0] / 0x0003), 48000 Hz, 
stereo, s16p, 64 kb/s
    Stream #0:12[0xca](eng): Audio: mp2 ([3][0][0][0] / 0x0003), 48000 Hz, 
mono, s16p, 64 kb/s
    Stream #0:13[0xcb](eng): Audio: mp2 ([3][0][0][0] / 0x0003), 48000 Hz, 
mono, s16p, 64 kb/s
    Stream #0:14[0xcc](eng): Audio: mp2 ([3][0][0][0] / 0x0003), 48000 Hz, 
mono, s16p, 64 kb/s
    Stream #0:15[0xcd](eng): Audio: mp2 ([3][0][0][0] / 0x0003), 48000 Hz, 
mono, s16p, 64 kb/s
    Stream #0:16[0xce](eng): Audio: mp2 ([3][0][0][0] / 0x0003), 48000 Hz, 
mono, s16p, 64 kb/s
    Stream #0:17[0xcf](eng): Audio: mp2 ([3][0][0][0] / 0x0003), 48000 Hz, 
mono, s16p, 64 kb/s
  Program 3 
    Metadata:
      service_name    : Video
      service_provider: IMSP
    Stream #0:0[0x12c]: Video: h264 (Main) ([27][0][0][0] / 0x001B), 
yuv420p(tv, bt709, top first), 1920x1080 [SAR 1:1 DAR 16:9], 29.97 fps, 59.94 
tbr, 90k tbn, 59.94 tbc
    Stream #0:1[0x12d](eng): Audio: mp2 ([3][0][0][0] / 0x0003), 48000 Hz, 
mono, s16p, 64 kb/s
    Stream #0:2[0x12e](eng): Audio: mp2 ([3][0][0][0] / 0x0003), 48000 Hz, 
mono, s16p, 64 kb/s
    Stream #0:3[0x12f](eng): Audio: mp2 ([3][0][0][0] / 0x0003), 48000 Hz, 
mono, s16p, 64 kb/s
    Stream #0:4[0x130](eng): Audio: mp2 ([3][0][0][0] / 0x0003), 48000 Hz, 
mono, s16p, 64 kb/s
    Stream #0:5[0x131](eng): Audio: mp2 ([3][0][0][0] / 0x0003), 48000 Hz, 
mono, s16p, 64 kb/s
    Stream #0:6[0x132](eng): Audio: mp2 ([3][0][0][0] / 0x0003), 48000 Hz, 
mono, s16p, 64 kb/s
    Stream #0:7[0x133](eng): Audio: mp2 ([3][0][0][0] / 0x0003), 48000 Hz, 
mono, s16p, 64 kb/s
    Stream #0:8[0x134](eng): Audio: mp2 ([3][0][0][0] / 0x0003), 48000 Hz, 
mono, s16p, 64 kb/s
  Program 4 
    Metadata:
      service_name    : Video
      service_provider: IMSP
    Stream #0:9[0x190]: Video: h264 (Main) ([27][0][0][0] / 0x001B), 
yuv420p(tv, bt709, top first), 1920x1080 [SAR 1:1 DAR 16:9], 29.97 fps, 59.94 
tbr, 90k tbn, 59.94 tbc
    Stream #0:27[0x191](eng): Audio: mp2 ([3][0][0][0] / 0x0003), 48000 Hz, 
mono, s16p, 64 kb/s
    Stream #0:26[0x192](eng): Audio: mp2 ([3][0][0][0] / 0x0003), 48000 Hz, 
mono, s16p, 64 kb/s
    Stream #0:32[0x193](eng): Audio: mp2 ([3][0][0][0] / 0x0003), 48000 Hz, 
mono, s16p, 64 kb/s
    Stream #0:33[0x194](eng): Audio: mp2 ([3][0][0][0] / 0x0003), 48000 Hz, 
mono, s16p, 64 kb/s
    Stream #0:30[0x195](eng): Audio: mp2 ([3][0][0][0] / 0x0003), 48000 Hz, 
mono, s16p, 64 kb/s
    Stream #0:31[0x196](eng): Audio: mp2 ([3][0][0][0] / 0x0003), 48000 Hz, 
mono, s16p, 64 kb/s
    Stream #0:28[0x197](eng): Audio: mp2 ([3][0][0][0] / 0x0003), 48000 Hz, 
mono, s16p, 64 kb/s
    Stream #0:29[0x198](eng): Audio: mp2 ([3][0][0][0] / 0x0003), 48000 Hz, 
mono, s16p, 64 kb/s
Output #0, mpegts, to '/home/slicer/testrec.ts':
  Metadata:
    encoder         : Lavf57.71.100
    Stream #0:0: Video: h264 (Main) ([27][0][0][0] / 0x001B), yuv420p(tv, 
bt709, top first), 1920x1080 [SAR 1:1 DAR 16:9], q=2-31, 29.97 fps, 59.94 tbr, 
90k tbn, 90k tbc
    Stream #0:1: Video: h264 (Main) ([27][0][0][0] / 0x001B), yuv420p(tv, 
bt709, top first), 1920x1080 [SAR 1:1 DAR 16:9], q=2-31, 29.97 fps, 59.94 tbr, 
90k tbn, 90k tbc
    Stream #0:2: Video: h264 (Main) ([27][0][0][0] / 0x001B), yuv420p(tv, 
bt709, top first), 1920x1080 [SAR 1:1 DAR 16:9], q=2-31, 29.97 fps, 59.94 tbr, 
90k tbn, 90k tbc
    Stream #0:3: Video: h264 (Main) ([27][0][0][0] / 0x001B), yuv420p(tv, 
bt709, top first), 1920x1080 [SAR 1:1 DAR 16:9], q=2-31, 29.97 fps, 59.94 tbr, 
90k tbn, 90k tbc
    Stream #0:4(eng): Audio: mp2 ([3][0][0][0] / 0x0003), 48000 Hz, mono, s16p, 
64 kb/s
    Stream #0:5(eng): Audio: mp2 ([3][0][0][0] / 0x0003), 48000 Hz, mono, s16p, 
64 kb/s
    Stream #0:6(eng): Audio: mp2 ([3][0][0][0] / 0x0003), 48000 Hz, mono, s16p, 
64 kb/s
    Stream #0:7(eng): Audio: mp2 ([3][0][0][0] / 0x0003), 48000 Hz, mono, s16p, 
64 kb/s
    Stream #0:8(eng): Audio: mp2 ([3][0][0][0] / 0x0003), 48000 Hz, mono, s16p, 
64 kb/s
    Stream #0:9(eng): Audio: mp2 ([3][0][0][0] / 0x0003), 48000 Hz, mono, s16p, 
64 kb/s
    Stream #0:10(eng): Audio: mp2 ([3][0][0][0] / 0x0003), 48000 Hz, mono, 
s16p, 64 kb/s
    Stream #0:11(eng): Audio: mp2 ([3][0][0][0] / 0x0003), 48000 Hz, mono, 
s16p, 64 kb/s
    Stream #0:12(eng): Audio: mp2 ([3][0][0][0] / 0x0003), 48000 Hz, stereo, 
s16p, 64 kb/s
    Stream #0:13(eng): Audio: mp2 ([3][0][0][0] / 0x0003), 48000 Hz, mono, 
s16p, 64 kb/s
    Stream #0:14(eng): Audio: mp2 ([3][0][0][0] / 0x0003), 48000 Hz, mono, 
s16p, 64 kb/s
    Stream #0:15(eng): Audio: mp2 ([3][0][0][0] / 0x0003), 48000 Hz, mono, 
s16p, 64 kb/s
    Stream #0:16(eng): Audio: mp2 ([3][0][0][0] / 0x0003), 48000 Hz, mono, 
s16p, 64 kb/s
    Stream #0:17(eng): Audio: mp2 ([3][0][0][0] / 0x0003), 48000 Hz, mono, 
s16p, 64 kb/s
    Stream #0:18(eng): Audio: mp2 ([3][0][0][0] / 0x0003), 48000 Hz, mono, 
s16p, 64 kb/s
    Stream #0:19(eng): Audio: mp2 ([3][0][0][0] / 0x0003), 48000 Hz, stereo, 
s16p, 64 kb/s
    Stream #0:20(eng): Audio: mp2 ([3][0][0][0] / 0x0003), 48000 Hz, mono, 
s16p, 64 kb/s
    Stream #0:21(eng): Audio: mp2 ([3][0][0][0] / 0x0003), 48000 Hz, mono, 
s16p, 64 kb/s
    Stream #0:22(eng): Audio: mp2 ([3][0][0][0] / 0x0003), 48000 Hz, mono, 
s16p, 64 kb/s
    Stream #0:23(eng): Audio: mp2 ([3][0][0][0] / 0x0003), 48000 Hz, mono, 
s16p, 64 kb/s
    Stream #0:24(eng): Audio: mp2 ([3][0][0][0] / 0x0003), 48000 Hz, mono, 
s16p, 64 kb/s
    Stream #0:25(eng): Audio: mp2 ([3][0][0][0] / 0x0003), 48000 Hz, mono, 
s16p, 64 kb/s
    Stream #0:26(eng): Audio: mp2 ([3][0][0][0] / 0x0003), 48000 Hz, mono, 
s16p, 64 kb/s
    Stream #0:27(eng): Audio: mp2 ([3][0][0][0] / 0x0003), 48000 Hz, mono, 
s16p, 64 kb/s
    Stream #0:28(eng): Audio: mp2 ([3][0][0][0] / 0x0003), 48000 Hz, mono, 
s16p, 64 kb/s
    Stream #0:29(eng): Audio: mp2 ([3][0][0][0] / 0x0003), 48000 Hz, mono, 
s16p, 64 kb/s
    Stream #0:30(eng): Audio: mp2 ([3][0][0][0] / 0x0003), 48000 Hz, mono, 
s16p, 64 kb/s
    Stream #0:31(eng): Audio: mp2 ([3][0][0][0] / 0x0003), 48000 Hz, mono, 
s16p, 64 kb/s
    Stream #0:32(eng): Audio: mp2 ([3][0][0][0] / 0x0003), 48000 Hz, mono, 
s16p, 64 kb/s
    Stream #0:33(eng): Audio: mp2 ([3][0][0][0] / 0x0003), 48000 Hz, mono, 
s16p, 64 kb/s
Stream mapping:
  Stream #0:0 -> #0:0 (copy)
  Stream #0:9 -> #0:1 (copy)
  Stream #0:10 -> #0:2 (copy)
  Stream #0:18 -> #0:3 (copy)
  Stream #0:1 -> #0:4 (copy)
  Stream #0:2 -> #0:5 (copy)
  Stream #0:3 -> #0:6 (copy)
  Stream #0:4 -> #0:7 (copy)
  Stream #0:5 -> #0:8 (copy)
  Stream #0:6 -> #0:9 (copy)
  Stream #0:7 -> #0:10 (copy)
  Stream #0:8 -> #0:11 (copy)
  Stream #0:11 -> #0:12 (copy)
  Stream #0:12 -> #0:13 (copy)
  Stream #0:13 -> #0:14 (copy)
  Stream #0:14 -> #0:15 (copy)
  Stream #0:15 -> #0:16 (copy)
  Stream #0:16 -> #0:17 (copy)
  Stream #0:17 -> #0:18 (copy)
  Stream #0:19 -> #0:19 (copy)
  Stream #0:20 -> #0:20 (copy)
  Stream #0:21 -> #0:21 (copy)
  Stream #0:22 -> #0:22 (copy)
  Stream #0:23 -> #0:23 (copy)
  Stream #0:24 -> #0:24 (copy)
  Stream #0:25 -> #0:25 (copy)
  Stream #0:26 -> #0:26 (copy)
  Stream #0:27 -> #0:27 (copy)
  Stream #0:28 -> #0:28 (copy)
  Stream #0:29 -> #0:29 (copy)
  Stream #0:30 -> #0:30 (copy)
  Stream #0:31 -> #0:31 (copy)
  Stream #0:32 -> #0:32 (copy)
  Stream #0:33 -> #0:33 (copy)
Press [q] to stop, [?] for help
frame= 3528 fps= 61 q=-1.0 Lq=-1.0 q=-1.0 q=-1.0 size=  228896kB 
time=00:01:00.03 bitrate=31231.5kbits/s speed=1.04x    
video:191623kB audio:13901kB subtitle:0kB other streams:0kB global headers:0kB 
muxing overhead: 11.372211%
slicer@SH1305D4:/etc/uplynk$ 


Second try:

Command line:

sudo ffmpeg -y -i udp://232.1.1.1:5003?multicast=1 -map 0:v -map 0:a -streamid 
0:0x64 -streamid 1:0x65 -streamid 2:0x66 -streamid 3:0x67 -streamid 4:0x68 
-streamid 5:0x69 -streamid 6:0x6A -streamid 7:0x6B -streamid 8:0xC8 -streamid 
9:0xC9 -streamid 10:0xCA -streamid 11:0xCB -streamid 12:0xCC -streamid 13:0xCD 
-streamid 14:0xCE -streamid 15:0xCF -streamid 16:0x12C -streamid 17:0x12D 
-streamid 18:0x12E -streamid 19:0x12F -streamid 20:0x130 -streamid 21:0x131 
-streamid 22:0x132 -streamid 23:0x133 -streamid 24:0x134 -streamid 25:0x190 
-streamid 26:0x191 -streamid 27:0x192 -streamid 28:0x193 -streamid 29:0x194 
-streamid 30:0x195 -streamid 31:0x196 -streamid 32:0x197 -streamid 33:0x198 -c 
copy /home/slicer/testrec.ts

Console:

Input #0, mpegts, from 'udp://232.1.1.1:5003?multicast=1':
  Duration: N/A, start: 116.126189, bitrate: N/A
  Program 1 
    Metadata:
      service_name    : InCar Cam 1
      service_provider: IMSP
    Stream #0:33[0x64]: Video: h264 (Main) ([27][0][0][0] / 0x001B), 
yuv420p(tv, bt709, top first), 1920x1080 [SAR 1:1 DAR 16:9], 29.97 fps, 59.94 
tbr, 90k tbn, 59.94 tbc
    Stream #0:19[0x65](eng): Audio: mp2 ([3][0][0][0] / 0x0003), 48000 Hz, 
stereo, s16p, 64 kb/s
    Stream #0:29[0x66](eng): Audio: mp2 ([3][0][0][0] / 0x0003), 48000 Hz, 
mono, s16p, 64 kb/s
    Stream #0:30[0x67](eng): Audio: mp2 ([3][0][0][0] / 0x0003), 48000 Hz, 
mono, s16p, 64 kb/s
    Stream #0:27[0x68](eng): Audio: mp2 ([3][0][0][0] / 0x0003), 48000 Hz, 
mono, s16p, 64 kb/s
    Stream #0:26[0x69](eng): Audio: mp2 ([3][0][0][0] / 0x0003), 48000 Hz, 
mono, s16p, 64 kb/s
    Stream #0:31[0x6a](eng): Audio: mp2 ([3][0][0][0] / 0x0003), 48000 Hz, 
mono, s16p, 64 kb/s
    Stream #0:28[0x6b](eng): Audio: mp2 ([3][0][0][0] / 0x0003), 48000 Hz, 
mono, s16p, 64 kb/s
  Program 2 
    Metadata:
      service_name    : InCar Cam 2
      service_provider: IMSP
    Stream #0:9[0xc8]: Video: h264 (Main) ([27][0][0][0] / 0x001B), yuv420p(tv, 
bt709, top first), 1920x1080 [SAR 1:1 DAR 16:9], 29.97 fps, 59.94 tbr, 90k tbn, 
59.94 tbc
    Stream #0:32[0xc9](eng): Audio: mp2 ([3][0][0][0] / 0x0003), 48000 Hz, 
stereo, s16p, 64 kb/s
    Stream #0:23[0xca](eng): Audio: mp2 ([3][0][0][0] / 0x0003), 48000 Hz, 
mono, s16p, 64 kb/s
    Stream #0:22[0xcb](eng): Audio: mp2 ([3][0][0][0] / 0x0003), 48000 Hz, 
mono, s16p, 64 kb/s
    Stream #0:21[0xcc](eng): Audio: mp2 ([3][0][0][0] / 0x0003), 48000 Hz, 
mono, s16p, 64 kb/s
    Stream #0:20[0xcd](eng): Audio: mp2 ([3][0][0][0] / 0x0003), 48000 Hz, 
mono, s16p, 64 kb/s
    Stream #0:24[0xce](eng): Audio: mp2 ([3][0][0][0] / 0x0003), 48000 Hz, 
mono, s16p, 64 kb/s
    Stream #0:25[0xcf](eng): Audio: mp2 ([3][0][0][0] / 0x0003), 48000 Hz, 
mono, s16p, 64 kb/s
  Program 3 
    Metadata:
      service_name    : Video
      service_provider: IMSP
    Stream #0:10[0x12c]: Video: h264 (Main) ([27][0][0][0] / 0x001B), 
yuv420p(tv, bt709, top first), 1920x1080 [SAR 1:1 DAR 16:9], 29.97 fps, 59.94 
tbr, 90k tbn, 59.94 tbc
    Stream #0:13[0x12d](eng): Audio: mp2 ([3][0][0][0] / 0x0003), 48000 Hz, 
mono, s16p, 64 kb/s
    Stream #0:14[0x12e](eng): Audio: mp2 ([3][0][0][0] / 0x0003), 48000 Hz, 
mono, s16p, 64 kb/s
    Stream #0:11[0x12f](eng): Audio: mp2 ([3][0][0][0] / 0x0003), 48000 Hz, 
mono, s16p, 64 kb/s
    Stream #0:12[0x130](eng): Audio: mp2 ([3][0][0][0] / 0x0003), 48000 Hz, 
mono, s16p, 64 kb/s
    Stream #0:17[0x131](eng): Audio: mp2 ([3][0][0][0] / 0x0003), 48000 Hz, 
mono, s16p, 64 kb/s
    Stream #0:18[0x132](eng): Audio: mp2 ([3][0][0][0] / 0x0003), 48000 Hz, 
mono, s16p, 64 kb/s
    Stream #0:16[0x133](eng): Audio: mp2 ([3][0][0][0] / 0x0003), 48000 Hz, 
mono, s16p, 64 kb/s
    Stream #0:15[0x134](eng): Audio: mp2 ([3][0][0][0] / 0x0003), 48000 Hz, 
mono, s16p, 64 kb/s
  Program 4 
    Metadata:
      service_name    : Video
      service_provider: IMSP
    Stream #0:0[0x190]: Video: h264 (Main) ([27][0][0][0] / 0x001B), 
yuv420p(tv, bt709, top first), 1920x1080 [SAR 1:1 DAR 16:9], 29.97 fps, 59.94 
tbr, 90k tbn, 59.94 tbc
    Stream #0:1[0x191](eng): Audio: mp2 ([3][0][0][0] / 0x0003), 48000 Hz, 
mono, s16p, 64 kb/s
    Stream #0:2[0x192](eng): Audio: mp2 ([3][0][0][0] / 0x0003), 48000 Hz, 
mono, s16p, 64 kb/s
    Stream #0:3[0x193](eng): Audio: mp2 ([3][0][0][0] / 0x0003), 48000 Hz, 
mono, s16p, 64 kb/s
    Stream #0:4[0x194](eng): Audio: mp2 ([3][0][0][0] / 0x0003), 48000 Hz, 
mono, s16p, 64 kb/s
    Stream #0:5[0x195](eng): Audio: mp2 ([3][0][0][0] / 0x0003), 48000 Hz, 
mono, s16p, 64 kb/s
    Stream #0:6[0x196](eng): Audio: mp2 ([3][0][0][0] / 0x0003), 48000 Hz, 
mono, s16p, 64 kb/s
    Stream #0:7[0x197](eng): Audio: mp2 ([3][0][0][0] / 0x0003), 48000 Hz, 
mono, s16p, 64 kb/s
    Stream #0:8[0x198](eng): Audio: mp2 ([3][0][0][0] / 0x0003), 48000 Hz, 
mono, s16p, 64 kb/s
Output #0, mpegts, to '/home/slicer/testrec.ts':
  Metadata:
    encoder         : Lavf57.71.100
    Stream #0:0: Video: h264 (Main) ([27][0][0][0] / 0x001B), yuv420p(tv, 
bt709, top first), 1920x1080 [SAR 1:1 DAR 16:9], q=2-31, 29.97 fps, 59.94 tbr, 
90k tbn, 90k tbc
    Stream #0:1: Video: h264 (Main) ([27][0][0][0] / 0x001B), yuv420p(tv, 
bt709, top first), 1920x1080 [SAR 1:1 DAR 16:9], q=2-31, 29.97 fps, 59.94 tbr, 
90k tbn, 90k tbc
    Stream #0:2: Video: h264 (Main) ([27][0][0][0] / 0x001B), yuv420p(tv, 
bt709, top first), 1920x1080 [SAR 1:1 DAR 16:9], q=2-31, 29.97 fps, 59.94 tbr, 
90k tbn, 90k tbc
    Stream #0:3: Video: h264 (Main) ([27][0][0][0] / 0x001B), yuv420p(tv, 
bt709, top first), 1920x1080 [SAR 1:1 DAR 16:9], q=2-31, 29.97 fps, 59.94 tbr, 
90k tbn, 90k tbc
    Stream #0:4(eng): Audio: mp2 ([3][0][0][0] / 0x0003), 48000 Hz, mono, s16p, 
64 kb/s
    Stream #0:5(eng): Audio: mp2 ([3][0][0][0] / 0x0003), 48000 Hz, mono, s16p, 
64 kb/s
    Stream #0:6(eng): Audio: mp2 ([3][0][0][0] / 0x0003), 48000 Hz, mono, s16p, 
64 kb/s
    Stream #0:7(eng): Audio: mp2 ([3][0][0][0] / 0x0003), 48000 Hz, mono, s16p, 
64 kb/s
    Stream #0:8(eng): Audio: mp2 ([3][0][0][0] / 0x0003), 48000 Hz, mono, s16p, 
64 kb/s
    Stream #0:9(eng): Audio: mp2 ([3][0][0][0] / 0x0003), 48000 Hz, mono, s16p, 
64 kb/s
    Stream #0:10(eng): Audio: mp2 ([3][0][0][0] / 0x0003), 48000 Hz, mono, 
s16p, 64 kb/s
    Stream #0:11(eng): Audio: mp2 ([3][0][0][0] / 0x0003), 48000 Hz, mono, 
s16p, 64 kb/s
    Stream #0:12(eng): Audio: mp2 ([3][0][0][0] / 0x0003), 48000 Hz, mono, 
s16p, 64 kb/s
    Stream #0:13(eng): Audio: mp2 ([3][0][0][0] / 0x0003), 48000 Hz, mono, 
s16p, 64 kb/s
    Stream #0:14(eng): Audio: mp2 ([3][0][0][0] / 0x0003), 48000 Hz, mono, 
s16p, 64 kb/s
    Stream #0:15(eng): Audio: mp2 ([3][0][0][0] / 0x0003), 48000 Hz, mono, 
s16p, 64 kb/s
    Stream #0:16(eng): Audio: mp2 ([3][0][0][0] / 0x0003), 48000 Hz, mono, 
s16p, 64 kb/s
    Stream #0:17(eng): Audio: mp2 ([3][0][0][0] / 0x0003), 48000 Hz, mono, 
s16p, 64 kb/s
    Stream #0:18(eng): Audio: mp2 ([3][0][0][0] / 0x0003), 48000 Hz, mono, 
s16p, 64 kb/s
    Stream #0:19(eng): Audio: mp2 ([3][0][0][0] / 0x0003), 48000 Hz, mono, 
s16p, 64 kb/s
    Stream #0:20(eng): Audio: mp2 ([3][0][0][0] / 0x0003), 48000 Hz, stereo, 
s16p, 64 kb/s
    Stream #0:21(eng): Audio: mp2 ([3][0][0][0] / 0x0003), 48000 Hz, mono, 
s16p, 64 kb/s
    Stream #0:22(eng): Audio: mp2 ([3][0][0][0] / 0x0003), 48000 Hz, mono, 
s16p, 64 kb/s
    Stream #0:23(eng): Audio: mp2 ([3][0][0][0] / 0x0003), 48000 Hz, mono, 
s16p, 64 kb/s
    Stream #0:24(eng): Audio: mp2 ([3][0][0][0] / 0x0003), 48000 Hz, mono, 
s16p, 64 kb/s
    Stream #0:25(eng): Audio: mp2 ([3][0][0][0] / 0x0003), 48000 Hz, mono, 
s16p, 64 kb/s
    Stream #0:26(eng): Audio: mp2 ([3][0][0][0] / 0x0003), 48000 Hz, mono, 
s16p, 64 kb/s
    Stream #0:27(eng): Audio: mp2 ([3][0][0][0] / 0x0003), 48000 Hz, mono, 
s16p, 64 kb/s
    Stream #0:28(eng): Audio: mp2 ([3][0][0][0] / 0x0003), 48000 Hz, mono, 
s16p, 64 kb/s
    Stream #0:29(eng): Audio: mp2 ([3][0][0][0] / 0x0003), 48000 Hz, mono, 
s16p, 64 kb/s
    Stream #0:30(eng): Audio: mp2 ([3][0][0][0] / 0x0003), 48000 Hz, mono, 
s16p, 64 kb/s
    Stream #0:31(eng): Audio: mp2 ([3][0][0][0] / 0x0003), 48000 Hz, mono, 
s16p, 64 kb/s
    Stream #0:32(eng): Audio: mp2 ([3][0][0][0] / 0x0003), 48000 Hz, mono, 
s16p, 64 kb/s
    Stream #0:33(eng): Audio: mp2 ([3][0][0][0] / 0x0003), 48000 Hz, stereo, 
s16p, 64 kb/s
Stream mapping:
  Stream #0:0 -> #0:0 (copy)
  Stream #0:9 -> #0:1 (copy)
  Stream #0:10 -> #0:2 (copy)
  Stream #0:33 -> #0:3 (copy)
  Stream #0:1 -> #0:4 (copy)
  Stream #0:2 -> #0:5 (copy)
  Stream #0:3 -> #0:6 (copy)
  Stream #0:4 -> #0:7 (copy)
  Stream #0:5 -> #0:8 (copy)
  Stream #0:6 -> #0:9 (copy)
  Stream #0:7 -> #0:10 (copy)
  Stream #0:8 -> #0:11 (copy)
  Stream #0:11 -> #0:12 (copy)
  Stream #0:12 -> #0:13 (copy)
  Stream #0:13 -> #0:14 (copy)
  Stream #0:14 -> #0:15 (copy)
  Stream #0:15 -> #0:16 (copy)
  Stream #0:16 -> #0:17 (copy)
  Stream #0:17 -> #0:18 (copy)
  Stream #0:18 -> #0:19 (copy)
  Stream #0:19 -> #0:20 (copy)
  Stream #0:20 -> #0:21 (copy)
  Stream #0:21 -> #0:22 (copy)
  Stream #0:22 -> #0:23 (copy)
  Stream #0:23 -> #0:24 (copy)
  Stream #0:24 -> #0:25 (copy)
  Stream #0:25 -> #0:26 (copy)
  Stream #0:26 -> #0:27 (copy)
  Stream #0:27 -> #0:28 (copy)
  Stream #0:28 -> #0:29 (copy)
  Stream #0:29 -> #0:30 (copy)
  Stream #0:30 -> #0:31 (copy)
  Stream #0:31 -> #0:32 (copy)
  Stream #0:32 -> #0:33 (copy)
Press [q] to stop, [?] for help
[mpegts @ 0x314fe20] PES packet size mismatch.0 size=  151249kB 
time=00:00:40.54 bitrate=30555.6kbits/s speed=1.06x    
    Last message repeated 7 times
[mpegts @ 0x314fe20] PES packet size mismatch.0 size=  151779kB 
time=00:00:40.65 bitrate=30579.8kbits/s speed=1.05x    
    Last message repeated 13 times
frame= 3537 fps= 61 q=-1.0 Lq=-1.0 q=-1.0 q=-1.0 size=  229160kB 
time=00:01:00.45 bitrate=31053.5kbits/s speed=1.04x    
video:191863kB audio:13905kB subtitle:0kB other streams:0kB global headers:0kB 
muxing overhead: 11.368084%
slicer@SH1305D4:/etc/uplynk$ 


_______________________________________________
ffmpeg-user mailing list
ffmpeg-user@ffmpeg.org
http://ffmpeg.org/mailman/listinfo/ffmpeg-user

To unsubscribe, visit link above, or email
ffmpeg-user-requ...@ffmpeg.org with subject "unsubscribe".

Reply via email to